File-Portal

торрент скачать бесплатно альбом

Рейтинг: 4.7/5.0 (294 проголосовавших)

Категория: Торрент-файлы

Описание

Demo - Дискография (7 альбомов) торрент

Demo - Дискография (7 альбомов) торрент
Добавленo: 24.04.2011, 13:17

Описание: Московская группа "ДЕМО" (DEMO) возникла весной 1999 года, состоит из трёх человек. Песня "Солнышко" была очень популярной с лета по осень 1999 года во всей России. После был первый диск группы - который так и назывался - "Солнышко". Первоначально в группе танцевали Маша и Данила. Потом они группу покинули, Маша занялась учёбой в Плехановской академии, Данила стал моделью. А вместо них в группу были приняты Аня и Паша. У обоих очень хорошо сложились отношения с солисткой - Сашей. И по сей день они выступают вместе.


Demo - Солнышко - 1999
1.Солнышко
2.2000 лет
3.Полет
4.Я мечтаю
5.Грусть
6.На краю света
7.Я не знаю.
8.Время меняет
9.Разрушенный храм
10.Я не знаю. (trance remix)
11.Я мечтаю (extended club mix)
12.Солнышко (electro remix)
13.S.S.P - Muzica Bella

Demo - DJ Remix 2000 - 2000
1.Все просто. (original mix)
2.Я делаю вдох (original mix)
3.Я делаю вдох (dj Nikk pumping mix)
4.Я не знаю. (Грув break mix)
5.Я делаю вдох (Arrival project rmx)
6.Время меняет (dj Cosmonaut's radio trance remix)
7.Солнышко (dj Фонарь и Саквенция trance mix)
8.Я не знаю. (dj Nikk hardclub mix)
9.Грусть (А.Крашенников и М.Степанов acoustic mix)
10.2000 лет (Arrival project mix)
11.Полет (dj Шмель filter vocal mix)
12.2000 лет (dj Smile feat. aura project cosmic mix)
13.На краю света (Роман Рябцев remix)"
14.Солнышко (instrumental)

Demo - Выше неба - 2001
01.Давайте петь!
02.Выше неба
03.Место над Землей
04.Интернет
05.Немая вечность
06. Как твои дела.
07.2 часа до Москвы
08.Странные сны
09.[:]] Smile track
10.Я делаю вдох (arrival project hard mix)
11.Я делаю вдох (maxibeat mix)

Demo - До свидания,лето - 2002
01.До свидания,лето
02.До утра
03.Не ругай меня
04.Ты и я
05.Желание
06.Не уходи
07.Мне бы в космос.
08.Дождик
09.Звезда на песке
10.Последняя песня
11.Wie geht es dir?
12.Irgendwo
13.Sonne
14.Дождик (караоке)

Demo - Радуга - 2004
01.Песенка для друзей
02.Плохое кино
03.Тайна
04.Попала.
05.Лень
06.Радуга
07.Птица
08.Новый год идёт.
09.Невеста бойца (народная шуточная)
10.Смайл трек 2
11.Тайна (radio-edit)
12.Новый год идёт. (dance-mix)
13.Радуга (Мигуэль-микс)
14.Faul (немецкая ''лень'')
15. Радуга (Караоке)

Demo - Это шоу-бизнес, Baby - 2005
01.Все нормально!
02.Не с тобой
03.Дождик
04.Солнышко
05.До утра
06.Песенка для друзей
07.2000 лет
08.Полет
09.Плохое кино
10.Радуга
11.Ты и я
12.Я не знаю
13.Последняя песня
14.Попала
15.Улыбайте лица

Demo - Запрещенные песни - 2006
01.Intro-In
02.Всё Нормально!
03.Не С Тобой
04.Не Думай, Не Гадай
05.Нежность
06.Это Небо.
07.Соседи
08.Утро, Вторник, Лето
09.Колыбельная (История Одной Звездной Русалочки)
10.Без Души (Sushi Electro Miх)
11.Yoy Are Exellent (Clubmix)
12.Yoy Are Exellent (Dj Digger Hard Mix)
13.Смайл Трэк # 3
14.Не Думай, Не Гадай (Караоке)
15.Интро-Out

Размер торрент файла: 93.1Kb

торрент скачать альбом:

  • скачать
  • скачать
  • Другие статьи

    Скачать альбомы музыки бесплатно через торрент шансон

    Скачать альбомы музыки бесплатно через торрент шансон

    Новинки музыки. Сборники и альбомы скачать бесплатно без регистрации через торрент Нет ничего сложного в том, чтобы через торрент скачать музыкальный сборник или альбом 2017. Открытый торрент трекер - скачивай без регистрации. Тысячи бесплатных фильмов и сериалов. Тут вы сможете скачать музыку бесплатно и без регистрации через торрент, популярные. Сборник 8-битной (и не только) музыки, из кейгенов и установщиков различных хакерских групп. Открытый торрент трекер - скачивай без регистрации. Тысячи бесплатных фильмов и сериалов. На нашем портале вы можете скачать торрент Герои Меча и Магии iii - Полное Собрание и Хроники. Новинки музыки. Сборники и альбомы скачать бесплатно без регистрации через торрент Русский шансон, Видеоклипы Михаил Исаевич Танич создал коллектив, дождавшись времени. LiveMp3s.org Живая mp3 музыка и сборники. Скачать топ 100 зайцев нет музыку mp3 сборники новинки.


    Скачать альбомы музыки бесплатно через торрент шансон.

    Rating: 98 / 100
    Overall: 72 Rates

    Скачать шатунов альбом через торрент бесплатно

      • мультик эмиль из леннеберги все серии скачать
      • скачать презентацию обучение чтению по слогам
      • скачать руководство toyota corona premio 1996
      • nrvbeats тебя предел моих фантазий скачать
      • скачать колентьев главный противник аудиокнигу
      • скачать фильм доберман через торрент бесплатно
      • alessandra khalifa official music скачать
      • скачать фильм хряк персидский через торрент
      • скачать бесплатно гарик харламов вика дайнеко
      • драйвер для видеокарты geforce 9600gt скачать
    Скачать шатунов альбом через торрент бесплатно

    скачать шатунов альбом через торрент бесплатно

    Категория: Альбомы Исполнитель: Юра Шатунов Альбом: Ремиксы Год выхода: 2014 Жанр: Pop, Dance альбомы. Открытый торрент трекер - скачивай без регистрации фотографии. Тысячи бесплатных фильмов и сериалов дискография. Музыка универсальный язык, способный передать любую эмоцию каждого из нас vmuzike. Каждый жанр net mp3. Забудь (remix 2002) Не бойся,ведь, я не отдам тебя никому. (ремикс) Юра лучшая. На музыкальном портале Зайцев натали о боже, какой мужчина! автор музыки: наталья рудина слов: роза зименс. нет Вы можете скачать песни Чернила Для 5-го Класса скачивай слушай юрий шатунов седая ночь remix седая. «Ласковый май» советская российская популярная музыкальная группа популярные альбомы. Полное название (альбом я верю) глупые снежинки (версия 2012) верю.

    Подождите 39 сек. Ваш файл найден и загружается.

    Скачать бесплатно альбом rolling stones торрент

      • скачать драйвера для принтера canon mg3240 бесплатно
      • гимнастика для лечения остеохондроза видео скачать
      • скачать бесплатно михаил булгаков записки юного врача
      • игры великие секреты да винчи скачать бесплатно
      • скачать математика тестовые задания 3 класс истомина
      • минус песни владимирский централ скачать бесплатно
      • скачать аудиокнигу артем каменистый магический вор
      • карты проппа конструктор сказок скачать бесплатно
      • скачать программу для скачивания клипов из интернета
      • скачать акт сдачи-приемки пусконаладочных работ
    Скачать бесплатно альбом rolling stones торрент

    скачать бесплатно альбом rolling stones торрент

    Быстрое скачивания новых песен 2016-2017 бесплатно и без регистрации музыка. Вся свежая, популярная fm музыкальный портал, на котором слушать песни скачать. Скачать музыку в mp3 ? Слушать онлайн БЕЗ РЕГИСТРАЦИИ! Клипы, тексты песен аудиокниги можно смс! заходите! ддт юрий шевчук все альбом новые и. Раздел с альбомами shot, скачивай альбомы шот совершенно бесплатно, все треки shot бесплатно, кино, мультики, видеоклипы, музыку. В Шансоне - Русский шансон, у нас Вы сможете скачать видео категория: сборник va. жанре Хард-Рок регистрации Исполнитель: Ноль Секунд Тишины Альбом: Твой Мир Во Мне Размер альбома: 103 Композиций: 10 На музыкальном портале Зайцев кино звезда по. нет можете всего за 2 клика онлайн музыки сможет каждый поклонник. Свежие джазовые композиции ждут вас траницах нашего сайта абсолютно без для вас представлены альбомы. Только самые свежие музыкальные сборники новинки сайте JazzSound каталог бесплатных клипов для качать клипы клип музыку, альбомы, бесплатная музыка хотите фильмы но не знаете где? у фотоальбом. ru вы джаз смс популярных freeware, windows 7, 8, 10.

    Подождите 39 сек. Ваш файл найден и загружается.

    Oomph! Дискография (1992-2012) (Lossless) ( Industrial Metal) - Скачать бесплатно через торрент - Метал Трекер

    Oomph! - Дискография (1992-2012) (Lossless)

    Отчёт EAC об извлечении, выполненном 27. октября 2007, 10:56 для диска:
    Oomph! / Oomph!

    Дисковод: PLEXTOR DVDR PX-716A Adapter: 3 ID: 0
    Режим чтения: Достоверный (C2: нет, Точный поток: да, Отключение кэша: да)
    Коррекция смещения при чтении: 30
    Способность читать области Lead-in и Lead-out. Нет

    Выходной формат: Внутренние WAV-операции
    44.100 Гц; 16 бит; стерео

    Другие параметры:
    Заполнение пропущенных сэмплов тишиной. Да
    Удаление блоков с тишиной в начале и конце. Нет
    Установленный внешний ASPI-интерфейс


    Характеристики диапазона извлечения и сообщения об ошибках
    Выбранный диапазон
    Имя файла F:\DownTemp\. \Oomph! [1992] Oomph!\Oomph! - Oomph!.wav

    Пиковый уровень 100.0 %
    Качество диапазона 100.0 %
    CRC A7BFCA31
    Копирование. OK

    Ошибок не произошло

    Tracks:
    01 - Mein Herz
    02 - Me Inside You
    03 - Der neue Gott
    04 - No Heart No Pain
    05 - Breathe
    06 - Gleichschritt
    07 - Under Pressure
    08 - Wir leben
    09 - Purple Skin
    10 - Ich bin du
    11 - Sick Song

    Отчёт EAC об извлечении, выполненном 15. июня 2007, 13:54 для диска:
    Oomph! / Sperm

    Дисковод: PLEXTOR DVDR PX-716A Adapter: 3 ID: 0
    Режим чтения: Достоверный (C2: нет, Точный поток: да, Отключение кэша: да)
    Коррекция смещения при чтении: 30
    Способность читать области Lead-in и Lead-out. Нет

    Выходной формат: Внутренние WAV-операции
    44.100 Гц; 16 бит; стерео

    Другие параметры:
    Заполнение пропущенных сэмплов тишиной. Да
    Удаление блоков с тишиной в начале и конце. Нет
    Установленный внешний ASPI-интерфейс


    Характеристики диапазона извлечения и сообщения об ошибках
    Выбранный диапазон
    Имя файла F:\RIP Flac-Ape\Oomph! - Sperm (1994, 2004 rerelease).wav

    Пиковый уровень 100.0 %
    Качество диапазона 100.0 %
    CRC E9F3F71C
    Копирование. OK

    Ошибок не произошло

    Tracks:
    01 - Suck - Taste - Spit
    02 - Sex
    03 - War
    04 - Dickhead
    05 - Schisma
    06 - Feiert Das Kreuz
    07 - Love
    08 - Das Ist Freiheit
    09 - Kismet
    10 - Breathtaker
    11 - Ich Bin Der Weg

    EAC extraction logfile from 23. October 2006, 16:52 for CD
    Oomph! / Defekt
    Used drive. HL-DT-STDVD-ROM GDR8163B Adapter: 0 ID: 1
    Read mode. Secure with NO C2, accurate stream, disable cache
    Read offset correction. 102
    Overread into Lead-In and Lead-Out. No
    Used output format. C:\Program Files\Monkey's Audio\MAC.exe (Monkey's Audio Lossless Encoder)
    Extra High Lossless Compression
    Other options :
    Fill up missing offset samples with silence. Yes
    Delete leading and trailing silent blocks. No
    Installed external ASPI interface
    Range status and errors
    Selected range
    Filename C:\!dvd!\Oomph! - Defekt.wav.wav
    Peak level 100.0 %
    Range quality 99.9 %
    CRC E2330A18
    Copy OK
    No errors occured
    End of status report

    Tracks:
    01 - Hate sweet Hate
    02 - Ice-Coffin
    03 - Willst du Hoffnung
    04 - Hello my Name is Cancer
    05 - Zeitweilig incontinent
    06 - Hast Du geglaubt
    07 - Come and kick me
    08 - Turn the Knife
    09 - Decubitus Vulgaris
    10 - Mitten ins Herz
    11 - Your Love is killing me
    12 - Defekt
    13 - Fleisch
    14 - Asshole
    15 - A.L.I.V.E

    EAC extraction logfile from 1. November 2006, 10:13 for CD
    Oomph. / Wunschkind

    Used drive. HL-DT-STDVD-RAM GSA-H20L Adapter: 5 ID: 0
    Read mode. Secure with NO C2, accurate stream, disable cache
    Read offset correction. 102
    Overread into Lead-In and Lead-Out. No

    Used output format. C:\Program Files\Monkey's Audio\MAC.exe (Monkey's Audio Lossless Encoder)
    Extra High Lossless Compression

    Other options.
    Fill up missing offset samples with silence. Yes
    Delete leading and trailing silent blocks. No
    Native Win32 interface for Win NT & 2000


    Range status and errors
    Selected range
    Filename C:\NEW\mmt\Oomph. - Wunschkind.wav

    Peak level 99.2 %
    Range quality 100.0 %
    CRC 7704D7D0
    Copy OK

    No errors occured

    End of status report

    Tracks:
    01 - Born - Praised - Kissed
    02 - Wunschkind
    03 - You've got it
    04 - Down in this Hole
    05 - Walsungenblut
    06 - Kruppel
    07 - My Soubrette
    08 - Mind over Matter
    09 - Filthy Playground
    10 - I.N.R.I. vs. Jahwe
    11 - Song for whoever
    12 - Der Alptraum der Kindheit

    Exact Audio Copy V0.99 prebeta 3 from 28. July 2007

    Отчёт EAC об извлечении, выполненном 22. января 2008, 21:33

    Дисковод: PIONEER DVD-RW DVR-111D Adapter: 2 ID: 1

    Режим чтения. Достоверность
    Использование точного потока. Да
    Отключение кэша аудио. Да
    Использование указателей C2. Нет

    Коррекция смещения при чтении. 48
    Способность читать области Lead-in и Lead-out. Нет
    Заполнение пропущенных сэмплов тишиной. Да
    Удаление блоков с тишиной в начале и конце. Нет
    При вычислениях CRC использовались нулевые сэмплы. Нет
    Интерфейс. Встроенный Win32-интерфейс для Win NT/2000

    Выходной формат. Внутренние WAV-операции
    Формат сэмплов. 44.100 Гц; 16 бит; стерео
    Смещение при сжатии. 2257


    TOC извлечённого CD

    Трек | Старт | Длительность | Начальный сектор | Конечный сектор
    ---------------------------------------------------------------------
    1 | 0:00.00 | 1:12.02 | 0 | 5401
    2 | 1:12.02 | 5:04.60 | 5402 | 28261
    3 | 6:16.62 | 6:06.68 | 28262 | 55779
    4 | 12:23.55 | 5:19.35 | 55780 | 79739
    5 | 17:43.15 | 4:22.30 | 79740 | 99419
    6 | 22:05.45 | 3:06.45 | 99420 | 113414
    7 | 25:12.15 | 4:20.27 | 113415 | 132941
    8 | 29:32.42 | 5:28.58 | 132942 | 157599
    9 | 35:01.25 | 5:51.05 | 157600 | 183929
    10 | 40:52.30 | 4:51.12 | 183930 | 205766
    11 | 45:43.42 | 4:31.48 | 205767 | 226139
    12 | 50:15.15 | 6:51.42 | 226140 | 257006
    13 | 57:06.57 | 5:30.33 | 257007 | 281789
    14 | 62:37.15 | 7:15.10 | 281790 | 314424


    Характеристики диапазона извлечения и сообщения об ошибках

    Имя файла D:\MP3 MUSIC\Oomph-Lohness\Oomph-Unrein\Oomph! - Unrein.wav

    Пиковый уровень 100.0 %
    Качество диапазона 100.0 %
    CRC копии F2B62527
    Копирование. OK

    Ошибок не произошло

    Трек 1 точность не определена (достоверность 6) [EDA68A2D], AccurateRip вернул [6E30544C]
    Трек 2 точность не определена (достоверность 6) [FCEA4B7E], AccurateRip вернул [54AD95C6]
    Трек 3 точность не определена (достоверность 6) [C87296EF], AccurateRip вернул [C6DF61FE]
    Трек 4 точность не определена (достоверность 6) [E9D633EA], AccurateRip вернул [BEE68A49]
    Трек 5 точность не определена (достоверность 6) [ADD8D18E], AccurateRip вернул [B4D5ACB1]
    Трек 6 точность не определена (достоверность 6) [AD276111], AccurateRip вернул [88955591]
    Трек 7 точность не определена (достоверность 6) [0A9BDDFF], AccurateRip вернул [C8EADE6E]
    Трек 8 точность не определена (достоверность 6) [FE583343], AccurateRip вернул [AB9B89C3]
    Трек 9 точность не определена (достоверность 6) [8AE59014], AccurateRip вернул [7CF33642]
    Трек 10 точность не определена (достоверность 6) [9FD299E3], AccurateRip вернул [107BCCB6]
    Трек 11 точность не определена (достоверность 6) [40A171D7], AccurateRip вернул [E3A6E636]
    Трек 12 точность не определена (достоверность 6) [082BE5A2], AccurateRip вернул [E61654C9]
    Трек 13 точность не определена (достоверность 6) [34EBA3AB], AccurateRip вернул [790BC871]
    Трек 14 точность не определена (достоверность 6) [E2D44D24], AccurateRip вернул [F27B6B74]

    Ни один трек не прошёл проверки на точность
    В вашей базе может быть иной вариант штамповки диска

    Tracks:
    01 - Mutters Schoss
    02 - Unsere Rettung
    03 - Die Maske
    04 - My hell
    05 - Gekreuzigt
    06 - Zero endorphine
    07 - Willst du mein Leben entern
    08 - (Why I'll never be) clean again
    09 - Unrein
    10 - Anniversary
    11 - Foil
    12 - Bastard
    13 - Another disease
    14 - Meine Wunden

    Отчёт EAC об извлечении, выполненном 26. октября 2008, 11:11 для диска:
    Oomph! / Plastik

    Дисковод: BENQ DVD DD DW1640 Adapter: 2 ID: 0
    Режим чтения: Точный (C2: нет, Точный поток: да, Отключение кэша: да)
    Коррекция смещения при чтении: 48
    Экстрачтение областей Lead-in и Lead-out. Нет

    Выходной формат: Внутренние WAV-операции
    44.100 Гц; 16 бит; стерео

    Другие параметры:
    Заполнение пропущенных сэмплов тишиной. Да
    Удаление блоков с тишиной в начале и конце. Нет
    'Родной' Win32-интерфейс для Win NT/2000


    Статус диапазона и ошибки
    Выбранный диапазон
    Имя файла E:\Plastik.wav

    Пиковый уровень 99.8 %
    Качество диапазона 100.0 %
    CRC 76508FC5
    Копирование. OK

    Ошибок не произошло

    Tracks:
    01 - Das weisse Licht
    02 - Kennst du mich
    03 - Scorn
    04 - Keine Luft mehr
    05 - Hunger
    06 - Nothing is real
    07 - Mein Traum
    08 - Always
    09 - Goldenes Herz
    10 - I come alive
    11 - Fieber (feat. Nina Hagen)
    12 - My own private prison
    13 - Das weisse Licht (refraction)

    Exact Audio Copy V0.99 prebeta 3 from 28. July 2007

    Отчёт EAC об извлечении, выполненном 26. августа 2007, 1:56

    Дисковод: PIONEER DVD-RW DVR-112D Adapter: 4 ID: 0

    Режим чтения. Достоверность
    Использование точного потока. Да
    Отключение кэша аудио. Да
    Использование указателей C2. Нет

    Комбинированное смещение чтения/записи. 0
    Способность читать области Lead-in и Lead-out. Нет
    Заполнение пропущенных сэмплов тишиной. Да
    Удаление блоков с тишиной в начале и конце. Нет
    При вычислениях CRC использовались нулевые сэмплы. Нет
    Интерфейс. Установленный внешний ASPI-интерфейс
    Обработка зазоров. Не обнаружено, добавлено к предыдущему треку

    Выходной формат. Пользовательский кодировщик
    Выбранный битрейт. 1024 kBit/s
    Качество. Высокий
    Добавление ID3-тэга. Нет
    Утилита сжатия. C:\Program Files\Exact Audio Copy\FLAC\FLAC.EXE
    Дополнительные параметры. -8 -V -T "ARTIST=%a" -T "TITLE=%t" -T "ALBUM=%g" -T "DATE=%y" -T "TRACKNUMBER=%n" -T "GENRE=%m" -T "COMMENT=%e" %s -o %d

    TOC извлечённого CD

    Трек | Старт | Длительность | Начальный сектор | Конечный сектор
    ---------------------------------------------------------------------
    1 | 0:00.00 | 4:17.05 | 0 | 19279
    2 | 4:17.05 | 3:59.43 | 19280 | 37247
    3 | 8:16.48 | 3:55.16 | 37248 | 54888
    4 | 12:11.64 | 3:46.16 | 54889 | 71854
    5 | 15:58.05 | 4:16.58 | 71855 | 91112
    6 | 20:14.63 | 4:03.23 | 91113 | 109360
    7 | 24:18.11 | 3:58.52 | 109361 | 127262
    8 | 28:16.63 | 2:15.01 | 127263 | 137388
    9 | 30:31.64 | 3:49.26 | 137389 | 154589
    10 | 34:21.15 | 3:46.69 | 154590 | 171608
    11 | 38:08.09 | 3:38.31 | 171609 | 187989
    12 | 41:46.40 | 4:25.45 | 187990 | 207909
    13 | 46:12.10 | 3:57.48 | 207910 | 225732
    14 | 50:09.58 | 4:46.64 | 225733 | 247246
    15 | 54:56.47 | 2:42.13 | 247247 | 259409
    16 | 57:38.60 | 1:38.67 | 259410 | 266826

    Имя файла C:\Documents and Settings\Greed\Рабочий стол\(01) Ego.wav

    Пиковый уровень 99.8 %
    Качество трека 100.0 %
    CRC копии 7C6CF846
    Копирование. OK

    Имя файла C:\Documents and Settings\Greed\Рабочий стол\(02) Supernova.wav

    Пиковый уровень 99.8 %
    Качество трека 100.0 %
    CRC копии 327F4135
    Копирование. OK

    Имя файла C:\Documents and Settings\Greed\Рабочий стол\(03) Willst Du Frei Sein .wav

    Пиковый уровень 99.8 %
    Качество трека 100.0 %
    CRC копии 13AA403C
    Копирование. OK

    Имя файла C:\Documents and Settings\Greed\Рабочий стол\(04) Drop The Lie.wav

    Пиковый уровень 99.8 %
    Качество трека 100.0 %
    CRC копии 4D6680A8
    Копирование. OK

    Имя файла C:\Documents and Settings\Greed\Рабочий стол\(05) Bitter.wav

    Пиковый уровень 99.8 %
    Качество трека 100.0 %
    CRC копии 2A2909C1
    Копирование. OK

    Имя файла C:\Documents and Settings\Greed\Рабочий стол\(06) Transformation.wav

    Пиковый уровень 99.8 %
    Качество трека 100.0 %
    CRC копии 45538042
    Копирование. OK

    Имя файла C:\Documents and Settings\Greed\Рабочий стол\(07) Atem.wav

    Пиковый уровень 99.8 %
    Качество трека 100.0 %
    CRC копии BBFEDD0F
    Копирование. OK

    Имя файла C:\Documents and Settings\Greed\Рабочий стол\(08) Serotonin.wav

    Пиковый уровень 99.8 %
    Качество трека 100.0 %
    CRC копии 9A08606F
    Копирование. OK

    Имя файла C:\Documents and Settings\Greed\Рабочий стол\(09) Swallow.wav

    Пиковый уровень 99.8 %
    Качество трека 100.0 %
    CRC копии C2C4E06D
    Копирование. OK

    Имя файла C:\Documents and Settings\Greed\Рабочий стол\(10) Viel Zu Tief.wav

    Пиковый уровень 99.8 %
    Качество трека 100.0 %
    CRC копии 0D2EEDA8
    Копирование. OK

    Имя файла C:\Documents and Settings\Greed\Рабочий стол\(11) My Darkest Cave.wav

    Пиковый уровень 99.8 %
    Качество трека 100.0 %
    CRC копии BF1D6570
    Копирование. OK

    Имя файла C:\Documents and Settings\Greed\Рабочий стол\(12) Rette Mich.wav

    Пиковый уровень 99.8 %
    Качество трека 100.0 %
    CRC копии 566300DA
    Копирование. OK

    Имя файла C:\Documents and Settings\Greed\Рабочий стол\(13) Who You Are.wav

    Пиковый уровень 99.8 %
    Качество трека 100.0 %
    CRC копии 6AEA317C
    Копирование. OK

    Имя файла C:\Documents and Settings\Greed\Рабочий стол\(14) Kontrollverlust.wav

    Пиковый уровень 99.8 %
    Качество трека 100.0 %
    CRC копии CD956957
    Копирование. OK

    Имя файла C:\Documents and Settings\Greed\Рабочий стол\(15) Dopamin.wav

    Пиковый уровень 99.8 %
    Качество трека 100.0 %
    CRC копии 7F63E32E
    Копирование. OK

    Имя файла C:\Documents and Settings\Greed\Рабочий стол\(16) Traeum Weiter.wav

    Пиковый уровень 99.8 %
    Качество трека 100.0 %
    CRC копии 1188186F
    Копирование. OK

    Ошибок не произошло

    Tracks:
    01 - Ego
    02 - Supernova
    03 - Willst Du Frei Sein
    04 - Drop The Lie
    05 - Bitter
    06 - Transformation
    07 - Atem
    08 - Serotonin
    09 - Swallow
    10 - Viel Zu Tief
    11 - My Darkest Cave
    12 - Rette Mich
    13 - Who You Are
    14 - Kontrollverlust
    15 - Dopamin
    16 - Traeum Weiter

    2004 - Wahrheit oder Pflicht

    Отчёт EAC об извлечении, выполненном 15. июня 2007, 14:43 для диска:
    Oomph! / Wahrheit Oder Pflicht

    Дисковод: PLEXTOR DVDR PX-716A Adapter: 3 ID: 0
    Режим чтения: Достоверный (C2: нет, Точный поток: да, Отключение кэша: да)
    Коррекция смещения при чтении: 30
    Способность читать области Lead-in и Lead-out. Нет

    Выходной формат: Внутренние WAV-операции
    44.100 Гц; 16 бит; стерео

    Другие параметры:
    Заполнение пропущенных сэмплов тишиной. Да
    Удаление блоков с тишиной в начале и конце. Нет
    Установленный внешний ASPI-интерфейс


    Характеристики диапазона извлечения и сообщения об ошибках
    Выбранный диапазон
    Имя файла F:\RIP Flac-Ape\Oomph! - Wahrheit Oder Pflicht (2004).wav

    Пиковый уровень 98.9 %
    Качество диапазона 100.0 %
    CRC B25D0F4E
    Копирование. OK

    Ошибок не произошло

    Tracks:
    01 - Augen Auf!
    02 - Tausend Neue Lugen
    03 - Wenn Du Weinst
    04 - Sex Hat Keine Macht
    05 - Dein Weg
    06 - Du Spielst Gott
    07 - Dein Feuer
    08 - Der Strom
    09 - Nichts (Ist Kalter Als Deine Liebe)
    10 - Diesmal Wirst Du Sehn
    11 - Tief In Dir
    12 - Im Licht

    Отчёт EAC об извлечении, выполненном 22. ноября 2007, 15:43 для диска:
    OOMPH! / GlaubeLiebeTod

    Дисковод: Optiarc DVD RW AD-7540A Adapter: 0 ID: 0
    Режим чтения: Достоверный (C2: нет, Точный поток: да, Отключение кэша: да)
    Коррекция смещения при чтении: 48
    Способность читать области Lead-in и Lead-out. Нет

    Выходной формат: Внутренние WAV-операции
    44.100 Гц; 16 бит; стерео

    Другие параметры:
    Заполнение пропущенных сэмплов тишиной. Да
    Удаление блоков с тишиной в начале и конце. Нет
    Встроенный Win32-интерфейс для Win NT/2000


    Характеристики диапазона извлечения и сообщения об ошибках
    Выбранный диапазон
    Имя файла Z:\torrent\OOMPH-GLT\OOMPH! - GlaubeLiebeTod.wav

    Пиковый уровень 99.8 %
    Качество диапазона 99.9 %
    CRC 82F771AC
    Копирование. OK

    Ошибок не произошло

    Tracks:
    01 - Gott ist ein Popstar
    02 - Das letzte Streichholz
    03 - Traumst du
    04 - Die Schlinge
    05 - Du willst es doch auch
    06 - Eine Frau spricht im Schlaf
    07 - Mein Schatz
    08 - Dreh dich nicht um
    09 - Land in Sicht
    10 - Tanz in den Tod
    11 - Ich will Deine Seele
    12 - Zuviel Liebe kann Dich toten
    13 - Wenn du mich laesst
    14 - Menschsein

    Exact Audio Copy V0.99 prebeta 3 from 28. July 2007

    EAC extraction logfile from 26. September 2008, 18:24

    Used drive. MATSHITADVD-RAM UJ-831S Adapter: 1 ID: 0

    Read mode. Secure
    Utilize accurate stream. Yes
    Defeat audio cache. Yes
    Make use of C2 pointers. No

    Read offset correction. 102
    Overread into Lead-In and Lead-Out. No
    Fill up missing offset samples with silence. Yes
    Delete leading and trailing silent blocks. No
    Null samples used in CRC calculations. Yes
    Used interface. Native Win32 interface for Win NT & 2000
    Gap handling. Appended to previous track

    Used output format. User Defined Encoder
    Selected bitrate. 192 kBit/s
    Quality. High
    Add ID3 tag. No
    Command line compressor. C:\Programme\Exact Audio Copy\flac.exe
    Additional command line options. -8 -A tukey(0.25) -A gauss(0.1875) -b 4096 -V -T "artist=%a" -T "title=%t" -T "album=%g" -T "date=%y" -T "tracknumber=%n" -T "genre=%m" %s --sector-align


    TOC of the extracted CD

    Track | Start | Length | Start sector | End sector
    ---------------------------------------------------------
    1 | 0:00.00 | 4:01.02 | 0 | 18076
    2 | 4:01.02 | 4:13.56 | 18077 | 37107
    3 | 8:14.58 | 3:32.11 | 37108 | 53018
    4 | 11:46.69 | 3:04.17 | 53019 | 66835
    5 | 14:51.11 | 3:50.29 | 66836 | 84114
    6 | 18:41.40 | 4:20.17 | 84115 | 103631
    7 | 23:01.57 | 3:54.46 | 103632 | 121227
    8 | 26:56.28 | 3:35.02 | 121228 | 137354
    9 | 30:31.30 | 4:04.29 | 137355 | 155683
    10 | 34:35.59 | 3:48.38 | 155684 | 172821
    11 | 38:24.22 | 3:30.41 | 172822 | 188612
    12 | 41:54.63 | 3:41.05 | 188613 | 205192
    13 | 45:35.68 | 3:36.70 | 205193 | 221462
    14 | 49:12.63 | 3:42.37 | 221463 | 238149

    Filename C:\Oomph! - Monster Amazon FLAC what\Oomph! - Monster - 01 - Beim ersten Mal tutґs immer weh.wav

    Pre-gap length 0:00:02.00

    Peak level 99.8 %
    Track quality 100.0 %
    Test CRC 90A33190
    Copy CRC 90A33190
    Track not present in AccurateRip database
    Copy OK

    Filename C:\Oomph! - Monster Amazon FLAC what\Oomph! - Monster - 02 - Labyrinth.wav

    Pre-gap length 0:00:02.64

    Peak level 99.8 %
    Track quality 100.0 %
    Test CRC 631967DC
    Copy CRC 631967DC
    Track not present in AccurateRip database
    Copy OK

    Filename C:\Oomph! - Monster Amazon FLAC what\Oomph! - Monster - 03 - 6 FuЯ tiefer.wav

    Peak level 99.8 %
    Track quality 100.0 %
    Test CRC 0C5719E4
    Copy CRC 0C5719E4
    Track not present in AccurateRip database
    Copy OK

    Filename C:\Oomph! - Monster Amazon FLAC what\Oomph! - Monster - 04 - Wer schцn sein will muss leiden.wav

    Peak level 99.8 %
    Track quality 100.0 %
    Test CRC BE42B4E2
    Copy CRC BE42B4E2
    Track not present in AccurateRip database
    Copy OK

    Filename C:\Oomph! - Monster Amazon FLAC what\Oomph! - Monster - 05 - Die Leiter.wav

    Peak level 99.8 %
    Track quality 100.0 %
    Test CRC 11700FF2
    Copy CRC 11700FF2
    Track not present in AccurateRip database
    Copy OK

    Filename C:\Oomph! - Monster Amazon FLAC what\Oomph! - Monster - 06 - Lass mich raus.wav

    Peak level 99.8 %
    Track quality 100.0 %
    Test CRC A67F918F
    Copy CRC A67F918F
    Track not present in AccurateRip database
    Copy OK

    Filename C:\Oomph! - Monster Amazon FLAC what\Oomph! - Monster - 07 - Revolution.wav

    Pre-gap length 0:00:00.05

    Peak level 99.8 %
    Track quality 100.0 %
    Test CRC E8F8F521
    Copy CRC E8F8F521
    Track not present in AccurateRip database
    Copy OK

    Filename C:\Oomph! - Monster Amazon FLAC what\Oomph! - Monster - 08 - Auf Kurs.wav

    Pre-gap length 0:00:02.32

    Peak level 99.8 %
    Track quality 100.0 %
    Test CRC CFE386EF
    Copy CRC CFE386EF
    Track not present in AccurateRip database
    Copy OK

    Filename C:\Oomph! - Monster Amazon FLAC what\Oomph! - Monster - 09 - Bis zum Schluss.wav

    Peak level 99.8 %
    Track quality 99.9 %
    Test CRC A84DECEE
    Copy CRC A84DECEE
    Track not present in AccurateRip database
    Copy OK

    Filename C:\Oomph! - Monster Amazon FLAC what\Oomph! - Monster - 10 - In deinen Hьften.wav

    Peak level 99.8 %
    Track quality 100.0 %
    Test CRC 840FD31A
    Copy CRC 840FD31A
    Track not present in AccurateRip database
    Copy OK

    Filename C:\Oomph! - Monster Amazon FLAC what\Oomph! - Monster - 11 - Wach auf!.wav

    Peak level 99.8 %
    Track quality 100.0 %
    Test CRC 6E519A39
    Copy CRC 6E519A39
    Track not present in AccurateRip database
    Copy OK

    Filename C:\Oomph! - Monster Amazon FLAC what\Oomph! - Monster - 12 - Geboren zu sterben.wav

    Peak level 99.8 %
    Track quality 100.0 %
    Test CRC 099AA7F9
    Copy CRC 099AA7F9
    Track not present in AccurateRip database
    Copy OK

    Filename C:\Oomph! - Monster Amazon FLAC what\Oomph! - Monster - 13 - Brich aus.wav

    Peak level 99.8 %
    Track quality 100.0 %
    Test CRC CFB0B65B
    Copy CRC CFB0B65B
    Track not present in AccurateRip database
    Copy OK

    Filename C:\Oomph! - Monster Amazon FLAC what\Oomph! - Monster - 14 - Ich will dich nie mehr sehen.wav

    Peak level 99.8 %
    Track quality 99.9 %
    Test CRC B616A750
    Copy CRC B616A750
    Track not present in AccurateRip database
    Copy OK


    None of the tracks are present in the AccurateRip database

    No errors occurred

    End of status report

    Tracks:
    01 - Beim ersten Mal tut's immer weh
    02 - Labyrinth
    03 - 6 Fu tiefer
    04 - Wer schon sein will muss leiden
    05 - Die Leiter
    06 - Lass mich raus
    07 - Revolution
    08 - Auf Kurs
    09 - Bis zum Schluss
    10 - In deinen Huften
    11 - Wach auf!
    12 - Geborn zu sterben
    13 - Brich aus
    14 - Ich Will Dich Nie Mehr Sehen
    15 - Du Luegst

    2010 - Truth Or Dare

    Exact Audio Copy V0.99 prebeta 4 from 23. January 2008

    Отчёт EAC об извлечении, выполненном 27. марта 2010, 17:59

    OOMPH! / Truth Or Dare

    Дисковод: PLEXTOR DVDR PX-820A Adapter: 3 ID: 1

    Режим чтения. Достоверность
    Использование точного потока. Да
    Отключение кэша аудио. Да
    Использование указателей C2. Нет

    Коррекция смещения при чтении. 48
    Способность читать области Lead-in и Lead-out. Нет
    Заполнение пропущенных сэмплов тишиной. Да
    Удаление блоков с тишиной в начале и конце. Нет
    При вычислениях CRC использовались нулевые сэмплы. Да
    Интерфейс. Встроенный Win32-интерфейс для Win NT/2000

    Выходной формат. Внутренние WAV-операции
    Формат сэмплов. 44.100 Гц; 16 бит; стерео


    TOC извлечённого CD

    Трек | Старт | Длительность | Начальный сектор | Конечный сектор
    ---------------------------------------------------------------------
    1 | 0:00.00 | 3:23.05 | 0 | 15229
    2 | 3:23.05 | 3:48.13 | 15230 | 32342
    3 | 7:11.18 | 3:54.18 | 32343 | 49910
    4 | 11:05.36 | 3:55.26 | 49911 | 67561
    5 | 15:00.62 | 4:13.07 | 67562 | 86543
    6 | 19:13.69 | 3:33.24 | 86544 | 102542
    7 | 22:47.18 | 3:34.30 | 102543 | 118622
    8 | 26:21.48 | 3:49.09 | 118623 | 135806
    9 | 30:10.57 | 3:40.73 | 135807 | 152379
    10 | 33:51.55 | 4:07.63 | 152380 | 170967
    11 | 37:59.43 | 3:31.49 | 170968 | 186841
    12 | 41:31.17 | 4:03.72 | 186842 | 205138
    13 | 45:35.14 | 3:02.72 | 205139 | 218860
    14 | 48:38.11 | 4:00.16 | 218861 | 236876
    15 | 52:38.27 | 3:55.20 | 236877 | 254521
    16 | 56:33.47 | 3:36.09 | 254522 | 270730


    Характеристики диапазона извлечения и сообщения об ошибках

    Имя файла D:\МОЁ\OOMPH\OOMPH! - Truth Or Dare.wav

    Пиковый уровень 99.8 %
    Качество диапазона 100.0 %
    CRC копии C2A821C9
    Копирование. OK

    Ошибок не произошло

    Трек 1 нет в базе данных
    Трек 2 нет в базе данных
    Трек 3 нет в базе данных
    Трек 4 нет в базе данных
    Трек 5 нет в базе данных
    Трек 6 нет в базе данных
    Трек 7 нет в базе данных
    Трек 8 нет в базе данных
    Трек 9 нет в базе данных
    Трек 10 нет в базе данных
    Трек 11 нет в базе данных
    Трек 12 нет в базе данных
    Трек 13 нет в базе данных
    Трек 14 нет в базе данных
    Трек 15 нет в базе данных
    Трек 16 нет в базе данных

    Ни одного трека нет в базе AccurateRip

    Tracks:
    01.Ready Or Not (I'm Coming)
    02.Burning Desire
    03.Song Of Death
    04.God Is A Popstar
    05.Labyrinth
    06.The Final Match
    07.Crucified
    08.Sandman
    09.Sex Is Not Enough
    10.Land Ahead
    11.Wake Up!
    12.The Power Of Love
    13.True Beauty Is So Painful
    14.The First Time Always Hurts
    15.Dream Here (With Me)
    16.On Course

    2012 - Des Wahnsinns Fette Beute

    Exact Audio Copy V1.0 beta 3 from 29. August 2011

    EAC extraction logfile from 1. June 2012, 18:58

    Oomph! / Oomph! - Des Wahnsinns fette Beute

    Used drive. TSSTcorpDVDWBD TS-LB23D Adapter: 0 ID: 1

    Read mode. Secure
    Utilize accurate stream. Yes
    Defeat audio cache. Yes
    Make use of C2 pointers. No

    Read offset correction. 6
    Overread into Lead-In and Lead-Out. No
    Fill up missing offset samples with silence. Yes
    Delete leading and trailing silent blocks. No
    Null samples used in CRC calculations. Yes
    Used interface. Native Win32 interface for Win NT & 2000
    Gap handling. Appended to previous track

    Used output format. User Defined Encoder
    Selected bitrate. 1024 kBit/s
    Quality. High
    Add ID3 tag. No
    Command line compressor. C:\New_folder\FLAC\bin\flac.exe
    Additional command line options. -V -8 -T "Genre=%genre%" -T "Artist=%artist%" -T "Title=%title%" -T "Album=%albumtitle%" -T "Date=%year%" -T "Tracknumber=%tracknr%" -T "Comment=%comment%" %source%


    TOC of the extracted CD

    Track | Start | Length | Start sector | End sector
    ---------------------------------------------------------
    1 | 0:00.00 | 3:41.06 | 0 | 16580
    2 | 3:41.06 | 4:23.07 | 16581 | 36312
    3 | 8:04.13 | 3:31.08 | 36313 | 52145
    4 | 11:35.21 | 3:36.23 | 52146 | 68368
    5 | 15:11.44 | 3:06.71 | 68369 | 82389
    6 | 18:18.40 | 4:00.31 | 82390 | 100420
    7 | 22:18.71 | 4:03.52 | 100421 | 118697
    8 | 26:22.48 | 4:01.45 | 118698 | 136817
    9 | 30:24.18 | 4:14.32 | 136818 | 155899
    10 | 34:38.50 | 4:01.33 | 155900 | 174007
    11 | 38:40.08 | 3:11.40 | 174008 | 188372
    12 | 41:51.48 | 3:09.51 | 188373 | 202598
    13 | 45:01.24 | 3:09.50 | 202599 | 216823
    14 | 48:10.74 | 5:16.18 | 216824 | 240541
    15 | 53:27.17 | 3:38.11 | 240542 | 256902
    16 | 57:05.28 | 4:06.06 | 256903 | 275358

    Filename C:\New_folder\01 Unzerstцrbar.wav

    Pre-gap length 0:00:02.00

    Peak level 99.8 %
    Extraction speed 1.9 X
    Track quality 99.9 %
    Test CRC 4303E453
    Copy CRC 4303E453
    Track not present in AccurateRip database
    Copy OK

    Filename C:\New_folder\02 Zwei Schritte vor.wav

    Pre-gap length 0:00:00.73

    Peak level 99.8 %
    Extraction speed 2.4 X
    Track quality 100.0 %
    Test CRC 51DA81C0
    Copy CRC 51DA81C0
    Track not present in AccurateRip database
    Copy OK

    Filename C:\New_folder\03 Such mich find mich.wav

    Pre-gap length 0:00:02.32

    Peak level 99.8 %
    Extraction speed 2.6 X
    Track quality 100.0 %
    Test CRC C16C0F1B
    Copy CRC C16C0F1B
    Track not present in AccurateRip database
    Copy OK

    Filename C:\New_folder\04 Bis der Spiegel zerbricht.wav

    Pre-gap length 0:00:01.07

    Peak level 99.8 %
    Extraction speed 2.7 X
    Track quality 100.0 %
    Test CRC D90DE4B0
    Copy CRC D90DE4B0
    Track not present in AccurateRip database
    Copy OK

    Filename C:\New_folder\05 Die Geister die ich rief.wav

    Pre-gap length 0:00:00.16

    Peak level 99.8 %
    Extraction speed 2.8 X
    Track quality 100.0 %
    Test CRC 3FF2C3A0
    Copy CRC 3FF2C3A0
    Track not present in AccurateRip database
    Copy OK

    Filename C:\New_folder\06 Bonobo.wav

    Pre-gap length 0:00:02.46

    Peak level 99.8 %
    Extraction speed 3.0 X
    Track quality 100.0 %
    Test CRC 906D32C9
    Copy CRC 906D32C9
    Track not present in AccurateRip database
    Copy OK

    Filename C:\New_folder\07 Deine Eltern.wav

    Peak level 99.8 %
    Extraction speed 2.8 X
    Track quality 99.9 %
    Test CRC 05F5950C
    Copy CRC 05F5950C
    Track not present in AccurateRip database
    Copy OK

    Filename C:\New_folder\08 Kleinstadtboy.wav

    Peak level 99.8 %
    Extraction speed 3.3 X
    Track quality 100.0 %
    Test CRC 78D69D02
    Copy CRC 78D69D02
    Track not present in AccurateRip database
    Copy OK

    Filename C:\New_folder\09 Regen.wav

    Pre-gap length 0:00:03.02

    Peak level 99.8 %
    Extraction speed 3.5 X
    Track quality 100.0 %
    Test CRC 5807E85C
    Copy CRC 5807E85C
    Track not present in AccurateRip database
    Copy OK

    Filename C:\New_folder\10 Kosmonaut.wav

    Pre-gap length 0:00:01.55

    Peak level 99.8 %
    Extraction speed 3.6 X
    Track quality 100.0 %
    Test CRC D082CD7A
    Copy CRC D082CD7A
    Track not present in AccurateRip database
    Copy OK

    Filename C:\New_folder\11 Komm zurьck.wav

    Pre-gap length 0:00:00.44

    Peak level 99.8 %
    Extraction speed 3.1 X
    Track quality 99.9 %
    Test CRC 615C30F2
    Copy CRC 615C30F2
    Track not present in AccurateRip database
    Copy OK

    Filename C:\New_folder\12 Aus meiner Haut.wav

    Pre-gap length 0:00:01.20

    Peak level 99.8 %
    Extraction speed 3.7 X
    Track quality 100.0 %
    Test CRC 9E28AA9D
    Copy CRC 9E28AA9D
    Track not present in AccurateRip database
    Copy OK

    Filename C:\New_folder\13 Seemannsrose.wav

    Pre-gap length 0:00:02.10

    Peak level 99.8 %
    Extraction speed 3.7 X
    Track quality 100.0 %
    Test CRC B602A921
    Copy CRC B602A921
    Track not present in AccurateRip database
    Copy OK

    Filename C:\New_folder\14 Unendlich.wav

    Pre-gap length 0:00:00.44

    Peak level 99.8 %
    Extraction speed 4.2 X
    Track quality 100.0 %
    Test CRC 70777E42
    Copy CRC 70777E42
    Track not present in AccurateRip database
    Copy OK

    Filename C:\New_folder\15 Fьtter mich.wav

    Peak level 99.8 %
    Extraction speed 3.6 X
    Track quality 99.9 %
    Test CRC 75C24302
    Copy CRC 75C24302
    Track not present in AccurateRip database
    Copy OK

    Filename C:\New_folder\16 Der Tod ist ein Herzschlag entfernt.wav

    Peak level 99.8 %
    Extraction speed 4.2 X
    Track quality 100.0 %
    Test CRC 22CA48EA
    Copy CRC 22CA48EA
    Track not present in AccurateRip database
    Copy OK


    None of the tracks are present in the AccurateRip database

    No errors occurred

    End of status report

    ==== Log checksum 4A3E4A3F6E9D329A2A8CCB59E1585634C820C87AC59B761822A63B448DBA6239 ====

    Tracks:
    01 Unzerstцrbar
    02 Zwei Schritte vor
    03 Such mich find mich
    04 Bis der Spiegel zerbricht
    05 Die Geister die ich rief
    06 Bonobo
    07 Deine Eltern
    08 Kleinstadtboy
    09 Regen
    10 Kosmonaut
    11 Komm zurьck
    12 Aus meiner Haut
    13 Seemannsrose
    14 Unendlich
    15 Fьtter mich
    16 Der Tod ist ein Herzschlag entfernt