File-Portal

Drupi Дискография Скачать Торрент

Рейтинг: 4.9/5.0 (419 проголосовавших)

Категория: Торрент-файлы

Описание

Скачать музыку Drupi- 12 Albums Collections (1981) через торрент

Скачать музыку Drupi- 12 Albums Collections / [1981-2007, Pop Rock, Synth-Pop, Pop Music, Europop, FLAC] - торрент

Drupi- 12 Albums Collections
Формат: FLAC, (image + .cue), lossless
Год выпуска: 1981-2007
Страна: Italy
Жанр: Pop Rock. Synth Pop. Pop Music. Europop
Продолжительность: 10:48:33
Описание:

1981 Drupi, 1983 Canta 01


01. 10.8.800Un ‘Estate Fa
02. Moglia Mia
03. La Mia Canzone Al Vento
04. La Casa In Fondo Al Viale
05. Un Incontro
06. Lascero
07. Queste Mani
08. Stai Con Me
09. Credo
10. Bianca
Canta
11. Canta
12. E Piove
13. Balla Con Me
14. F ache Non Mi Manchi
15. Che Sara
16. Il Vento
17. Stasera
18. Dieci Volte
19. Waltz Per Un Amico

Exact Audio Copy V0.99 prebeta 4 from 23. January 2008

Отчёт EAC об извлечении, выполненном 3. июля 2009, 21:05

Drupi / Drupi-81 & Canta-83

Дисковод: PLEXTOR DVDR PX-806SA Adapter: 1 ID: 1

Режим чтения. Достоверность
Использование точного потока. Да
Отключение кэша аудио. Да
Использование указателей C2. Нет

Коррекция смещения при чтении. 6
Способность читать области Lead-in и Lead-out. Нет
Заполнение пропущенных сэмплов тишиной. Да
Удаление блоков с тишиной в начале и конце. Нет
При вычислениях CRC использовались нулевые сэмплы. Да
Интерфейс. Установленный внешний ASPI-интерфейс

Выходной формат. Пользовательский кодировщик
Выбранный битрейт. 1024 kBit/s
Качество. Высокий
Добавление ID3-тэга. Нет
Утилита сжатия. C:\Program Files\Exact Audio Copy\FLAC\FLAC.EXE
Дополнительные параметры. -6 -V -T "ARTIST=%a" -T "TITLE=%t" -T "ALBUM=%g" -T "DATE=%y" -T "TRACKNUMBER=%n" -T "GENRE=%m" -T "COMMENT=%e" %s -o %d

TOC извлечённого CD

Трек | Старт | Длительность | Начальный сектор | Конечный сектор
---------------------------------------------------------------------
1 | 0:00.00 | 3:05.48 | 0 | 13922
2 | 3:05.48 | 2:38.69 | 13923 | 25841
3 | 5:44.42 | 4:52.37 | 25842 | 47778
4 | 10:37.04 | 3:04.55 | 47779 | 61633
5 | 13:41.59 | 3:36.32 | 61634 | 77865
6 | 17:18.16 | 4:37.08 | 77866 | 98648
7 | 21:55.24 | 3:51.66 | 98649 | 116039
8 | 25:47.15 | 4:13.23 | 116040 | 135037
9 | 30:00.38 | 3:26.06 | 135038 | 150493
10 | 33:26.44 | 3:02.35 | 150494 | 164178
11 | 36:29.04 | 4:16.56 | 164179 | 183434
12 | 40:45.60 | 4:31.25 | 183435 | 203784
13 | 45:17.10 | 4:39.45 | 203785 | 224754
14 | 49:56.55 | 4:50.48 | 224755 | 246552
15 | 54:47.28 | 3:53.32 | 246553 | 264059
16 | 58:40.60 | 4:19.66 | 264060 | 283550
17 | 63:00.51 | 4:20.60 | 283551 | 303110
18 | 67:21.36 | 3:28.10 | 303111 | 318720
19 | 70:49.46 | 2:44.53 | 318721 | 331073

Характеристики диапазона извлечения и сообщения об ошибках

Имя файла I:\BitComet\Drupi (FLAC)\Drupi-81 & Canta-83\Drupi - Drupi-81 & Canta-83.wav

Пиковый уровень 92.0 %
Качество диапазона 100.0 %
CRC копии 7346904D
Копирование. OK

Ошибок не произошло

Трек 1 нет в базе данных
Трек 2 нет в базе данных
Трек 3 нет в базе данных
Трек 4 нет в базе данных
Трек 5 нет в базе данных
Трек 6 нет в базе данных
Трек 7 нет в базе данных
Трек 8 нет в базе данных
Трек 9 нет в базе данных
Трек 10 нет в базе данных
Трек 11 нет в базе данных
Трек 12 нет в базе данных
Трек 13 нет в базе данных
Трек 14 нет в базе данных
Трек 15 нет в базе данных
Трек 16 нет в базе данных
Трек 17 нет в базе данных
Трек 18 нет в базе данных
Трек 19 нет в базе данных

Ни одного трека нет в базе AccurateRip

1985 Un Passo 00


1. Un Vero Amore
2. Piano Piano Verra Domani
3. Quando Crevedo
4. Regalimi Un Sorriso
5. Fammi Volare
6. Un Passo
7. Le Vecchie
8. You (Musica)

Exact Audio Copy V0.99 prebeta 4 from 23. January 2008

Отчёт EAC об извлечении, выполненном 3. июля 2009, 20:01

Drupi / Un Passo

Дисковод: PLEXTOR DVDR PX-806SA Adapter: 1 ID: 1

Режим чтения. Достоверность
Использование точного потока. Да
Отключение кэша аудио. Да
Использование указателей C2. Нет

Коррекция смещения при чтении. 6
Способность читать области Lead-in и Lead-out. Нет
Заполнение пропущенных сэмплов тишиной. Да
Удаление блоков с тишиной в начале и конце. Нет
При вычислениях CRC использовались нулевые сэмплы. Да
Интерфейс. Установленный внешний ASPI-интерфейс

Выходной формат. Пользовательский кодировщик
Выбранный битрейт. 1024 kBit/s
Качество. Высокий
Добавление ID3-тэга. Нет
Утилита сжатия. C:\Program Files\Exact Audio Copy\FLAC\FLAC.EXE
Дополнительные параметры. -6 -V -T "ARTIST=%a" -T "TITLE=%t" -T "ALBUM=%g" -T "DATE=%y" -T "TRACKNUMBER=%n" -T "GENRE=%m" -T "COMMENT=%e" %s -o %d

TOC извлечённого CD

Трек | Старт | Длительность | Начальный сектор | Конечный сектор
---------------------------------------------------------------------
1 | 0:00.00 | 4:21.12 | 0 | 19586
2 | 4:21.12 | 4:30.69 | 19587 | 39905
3 | 8:52.06 | 3:34.43 | 39906 | 55998
4 | 12:26.49 | 4:16.57 | 55999 | 75255
5 | 16:43.31 | 3:57.05 | 75256 | 93035
6 | 20:40.36 | 3:29.57 | 93036 | 108767
7 | 24:10.18 | 3:51.59 | 108768 | 126151
8 | 28:02.02 | 4:12.26 | 126152 | 145077

Характеристики диапазона извлечения и сообщения об ошибках

Имя файла I:\BitComet\Drupi (FLAC)\Un Passo\Drupi - Un Passo.wav

Пиковый уровень 100.0 %
Качество диапазона 100.0 %
CRC копии 65B4D998
Копирование. OK

Ошибок не произошло

Трек 1 нет в базе данных
Трек 2 нет в базе данных
Трек 3 нет в базе данных
Трек 4 нет в базе данных
Трек 5 нет в базе данных
Трек 6 нет в базе данных
Трек 7 нет в базе данных
Трек 8 нет в базе данных

Ни одного трека нет в базе AccurateRip

1993 Storie D'Amore 00


01. Maiale
02. Avrei bisogno di te
03. Il sole nasce a levanter
04. Sei la mia donna
05. Solo
06. Solitudine
07. Quando c’e’ lei
08. Momento magico
09. Fermati
10. Strano

Exact Audio Copy V0.99 prebeta 4 from 23. January 2008

Отчёт EAC об извлечении, выполненном 21. июня 2009, 17:59

Drupi / Storie D'Amore

Дисковод: PLEXTOR DVDR PX-806SA Adapter: 1 ID: 1

Режим чтения. Достоверность
Использование точного потока. Да
Отключение кэша аудио. Да
Использование указателей C2. Нет

Коррекция смещения при чтении. 6
Способность читать области Lead-in и Lead-out. Нет
Заполнение пропущенных сэмплов тишиной. Да
Удаление блоков с тишиной в начале и конце. Нет
При вычислениях CRC использовались нулевые сэмплы. Да
Интерфейс. Установленный внешний ASPI-интерфейс

Выходной формат. Пользовательский кодировщик
Выбранный битрейт. 1024 kBit/s
Качество. Высокий
Добавление ID3-тэга. Нет
Утилита сжатия. C:\Program Files\Exact Audio Copy\FLAC\FLAC.EXE
Дополнительные параметры. -6 -V -T "ARTIST=%a" -T "TITLE=%t" -T "ALBUM=%g" -T "DATE=%y" -T "TRACKNUMBER=%n" -T "GENRE=%m" -T "COMMENT=%e" %s -o %d

TOC извлечённого CD

Трек | Старт | Длительность | Начальный сектор | Конечный сектор
---------------------------------------------------------------------
1 | 0:00.00 | 2:55.00 | 0 | 13124
2 | 2:55.00 | 4:32.35 | 13125 | 33559
3 | 7:27.35 | 4:47.30 | 33560 | 55114
4 | 12:14.65 | 4:51.37 | 55115 | 76976
5 | 17:06.27 | 4:12.28 | 76977 | 95904
6 | 21:18.55 | 3:55.60 | 95905 | 113589
7 | 25:14.40 | 4:56.72 | 113590 | 135861
8 | 30:11.37 | 4:04.43 | 135862 | 154204
9 | 34:16.05 | 4:33.02 | 154205 | 174681
10 | 38:49.07 | 4:17.28 | 174682 | 193984

Характеристики диапазона извлечения и сообщения об ошибках

Имя файла I:\BitComet\Drupi-Storie D'Amore\Drupi - Storie D'Amore.wav

Пиковый уровень 100.0 %
Качество диапазона 99.9 %
CRC копии A1C8DBE8
Копирование. OK

Ошибок не произошло

Трек 1 нет в базе данных
Трек 2 нет в базе данных
Трек 3 нет в базе данных
Трек 4 нет в базе данных
Трек 5 нет в базе данных
Трек 6 нет в базе данных
Трек 7 нет в базе данных
Трек 8 нет в базе данных
Трек 9 нет в базе данных
Трек 10 нет в базе данных

Ни одного трека нет в базе AccurateRip

1995 Voglio Una Donna 00


01. Voglio una donna
02. Regalami un sorriso
03. Vado via
04. Rimani
05. Sereno e
06. Alla grande
07. Piccola e fragile
08. Soli
09. Sambario
10. Era bella davvero
11. Avrei bisogno di te
12. Se Dio ti da

Exact Audio Copy V0.99 prebeta 4 from 23. January 2008

Отчёт EAC об извлечении, выполненном 22. июня 2009, 4:45

Drupi / Voglio Una Donna

Дисковод: PLEXTOR DVDR PX-806SA Adapter: 1 ID: 1

Режим чтения. Достоверность
Использование точного потока. Да
Отключение кэша аудио. Да
Использование указателей C2. Нет

Коррекция смещения при чтении. 6
Способность читать области Lead-in и Lead-out. Нет
Заполнение пропущенных сэмплов тишиной. Да
Удаление блоков с тишиной в начале и конце. Нет
При вычислениях CRC использовались нулевые сэмплы. Да
Интерфейс. Установленный внешний ASPI-интерфейс

Выходной формат. Пользовательский кодировщик
Выбранный битрейт. 1024 kBit/s
Качество. Высокий
Добавление ID3-тэга. Нет
Утилита сжатия. C:\Program Files\Exact Audio Copy\FLAC\FLAC.EXE
Дополнительные параметры. -6 -V -T "ARTIST=%a" -T "TITLE=%t" -T "ALBUM=%g" -T "DATE=%y" -T "TRACKNUMBER=%n" -T "GENRE=%m" -T "COMMENT=%e" %s -o %d

TOC извлечённого CD

Трек | Старт | Длительность | Начальный сектор | Конечный сектор
---------------------------------------------------------------------
1 | 0:00.00 | 5:05.45 | 0 | 22919
2 | 5:05.45 | 3:43.36 | 22920 | 39680
3 | 8:49.06 | 4:43.02 | 39681 | 60907
4 | 13:32.08 | 4:18.57 | 60908 | 80314
5 | 17:50.65 | 4:42.00 | 80315 | 101464
6 | 22:32.65 | 4:11.27 | 101465 | 120316
7 | 26:44.17 | 5:34.58 | 120317 | 145424
8 | 32:19.00 | 4:38.69 | 145425 | 166343
9 | 36:57.69 | 4:56.64 | 166344 | 188607
10 | 41:54.58 | 4:29.25 | 188608 | 208807
11 | 46:24.08 | 4:31.20 | 208808 | 229152
12 | 50:55.28 | 3:54.64 | 229153 | 246766

Характеристики диапазона извлечения и сообщения об ошибках

Имя файла I:\BitComet\Drupi-Voglio Una Donna\Drupi - Voglio Una Donna.wav

Пиковый уровень 98.8 %
Качество диапазона 100.0 %
CRC копии F14A74CA
Копирование. OK

Ошибок не произошло

Трек 1 нет в базе данных
Трек 2 нет в базе данных
Трек 3 нет в базе данных
Трек 4 нет в базе данных
Трек 5 нет в базе данных
Трек 6 нет в базе данных
Трек 7 нет в базе данных
Трек 8 нет в базе данных
Трек 9 нет в базе данных
Трек 10 нет в базе данных
Трек 11 нет в базе данных
Трек 12 нет в базе данных

Ни одного трека нет в базе AccurateRip

1995 Belle Bellissime 01


01. Rimani
02. Vado via
03. Ma poi
04. Piccola e fragile
05. Tutto bene
06. Sereno e
07. …Che estate
08. Bella bellissima
09. Segui me
10. Sambario
11. Due
12. Come va
13. Vita de mare
14. Mille lire
15. Era bella davvero
16. Conta su me

Exact Audio Copy V0.99 prebeta 4 from 23. January 2008

Отчёт EAC об извлечении, выполненном 3. июля 2009, 22:10

Drupi / Belle, bellissime

Дисковод: PLEXTOR DVDR PX-806SA Adapter: 1 ID: 1

Режим чтения. Достоверность
Использование точного потока. Да
Отключение кэша аудио. Да
Использование указателей C2. Нет

Коррекция смещения при чтении. 6
Способность читать области Lead-in и Lead-out. Нет
Заполнение пропущенных сэмплов тишиной. Да
Удаление блоков с тишиной в начале и конце. Нет
При вычислениях CRC использовались нулевые сэмплы. Да
Интерфейс. Установленный внешний ASPI-интерфейс

Выходной формат. Пользовательский кодировщик
Выбранный битрейт. 1024 kBit/s
Качество. Высокий
Добавление ID3-тэга. Нет
Утилита сжатия. C:\Program Files\Exact Audio Copy\FLAC\FLAC.EXE
Дополнительные параметры. -6 -V -T "ARTIST=%a" -T "TITLE=%t" -T "ALBUM=%g" -T "DATE=%y" -T "TRACKNUMBER=%n" -T "GENRE=%m" -T "COMMENT=%e" %s -o %d

TOC извлечённого CD

Трек | Старт | Длительность | Начальный сектор | Конечный сектор
---------------------------------------------------------------------
1 | 0:00.32 | 3:42.18 | 32 | 16699
2 | 3:42.50 | 4:04.57 | 16700 | 35056
3 | 7:47.32 | 4:07.05 | 35057 | 53586
4 | 11:54.37 | 4:27.00 | 53587 | 73611
5 | 16:21.37 | 3:11.43 | 73612 | 87979
6 | 19:33.05 | 3:57.00 | 87980 | 105754
7 | 23:30.05 | 3:50.52 | 105755 | 123056
8 | 27:20.57 | 3:23.38 | 123057 | 138319
9 | 30:44.20 | 3:51.20 | 138320 | 155664
10 | 34:35.40 | 4:18.50 | 155665 | 175064
11 | 38:54.15 | 3:36.45 | 175065 | 191309
12 | 42:30.60 | 3:30.45 | 191310 | 207104
13 | 46:01.30 | 3:07.25 | 207105 | 221154
14 | 49:08.55 | 3:34.02 | 221155 | 237206
15 | 52:42.57 | 4:09.45 | 237207 | 255926
16 | 56:52.27 | 4:10.20 | 255927 | 274696

Характеристики диапазона извлечения и сообщения об ошибках

Имя файла I:\BitComet\Drupi (FLAC)\Belle bellissime\Drupi - Belle, bellissime.wav

Пиковый уровень 100.0 %
Качество диапазона 100.0 %
CRC копии B541E109
Копирование. OK

Ошибок не произошло

Трек 1 точность не определена (достоверность 1) [21F47AD1], AccurateRip вернул [0BE3E74A]
Трек 2 точность не определена (достоверность 1) [985E6725], AccurateRip вернул [BA673D5E]
Трек 3 точность не определена (достоверность 1) [534A7DAD], AccurateRip вернул [5FCE4300]
Трек 4 точность не определена (достоверность 1) [45989861], AccurateRip вернул [66416D92]
Трек 5 точность не определена (достоверность 1) [C80AF9D9], AccurateRip вернул [40E88428]
Трек 6 точность не определена (достоверность 1) [3CE4B6AF], AccurateRip вернул [75AD7221]
Трек 7 точность не определена (достоверность 1) [6A738166], AccurateRip вернул [099A16DD]
Трек 8 точность не определена (достоверность 1) [1CD08174], AccurateRip вернул [7F5A7A53]
Трек 9 точность не определена (достоверность 1) [1220E5D6], AccurateRip вернул
Трек 10 точность не определена (достоверность 1) [C2E52E8C], AccurateRip вернул [3AFFE690]
Трек 11 точность не определена (достоверность 1) [AE3041FE], AccurateRip вернул [7DB445DE]
Трек 12 точность не определена (достоверность 1) [CC33B783], AccurateRip вернул [8DA16DE4]
Трек 13 точность не определена (достоверность 1) [03786B55], AccurateRip вернул
Трек 14 точность не определена (достоверность 1) [E6AF3495], AccurateRip вернул [9A5D5915]
Трек 15 точность не определена (достоверность 1) [8F5268B8], AccurateRip вернул [8E4D8195]
Трек 16 точность не определена (достоверность 1) [AF55BDB9], AccurateRip вернул [1062B726]

Ни один трек не прошёл проверки на точность
В вашей базе может быть иной вариант штамповки диска

1996 - The Best Of Drupi 00


01. Voglio una donna
02. Regalami un sorriso
03. Vado via
04. Rimani
05. Sereno e
06. Piccola e fragile
07. Soli
08. Sambario
09. Era bella davvero
10. Avrei bisogno di te
11. Se dio ti da

Exact Audio Copy V0.99 prebeta 4 from 23. January 2008

Отчёт EAC об извлечении, выполненном 3. июля 2009, 21:36

Drupi / The Best Of Drupi

Дисковод: PLEXTOR DVDR PX-806SA Adapter: 1 ID: 1

Режим чтения. Достоверность
Использование точного потока. Да
Отключение кэша аудио. Да
Использование указателей C2. Нет

Коррекция смещения при чтении. 6
Способность читать области Lead-in и Lead-out. Нет
Заполнение пропущенных сэмплов тишиной. Да
Удаление блоков с тишиной в начале и конце. Нет
При вычислениях CRC использовались нулевые сэмплы. Да
Интерфейс. Установленный внешний ASPI-интерфейс

Выходной формат. Пользовательский кодировщик
Выбранный битрейт. 1024 kBit/s
Качество. Высокий
Добавление ID3-тэга. Нет
Утилита сжатия. C:\Program Files\Exact Audio Copy\FLAC\FLAC.EXE
Дополнительные параметры. -6 -V -T "ARTIST=%a" -T "TITLE=%t" -T "ALBUM=%g" -T "DATE=%y" -T "TRACKNUMBER=%n" -T "GENRE=%m" -T "COMMENT=%e" %s -o %d

TOC извлечённого CD

Трек | Старт | Длительность | Начальный сектор | Конечный сектор
---------------------------------------------------------------------
1 | 0:00.00 | 5:09.06 | 0 | 23180
2 | 5:09.06 | 3:47.43 | 23181 | 40248
3 | 8:56.49 | 4:46.50 | 40249 | 61748
4 | 13:43.24 | 4:21.66 | 61749 | 81389
5 | 18:05.15 | 4:45.59 | 81390 | 102823
6 | 22:50.74 | 5:37.07 | 102824 | 128105
7 | 28:28.06 | 4:41.39 | 128106 | 149219
8 | 33:09.45 | 4:59.29 | 149220 | 171673
9 | 38:08.74 | 4:32.27 | 171674 | 192100
10 | 42:41.26 | 4:34.30 | 192101 | 212680
11 | 47:15.56 | 3:56.20 | 212681 | 230400

Характеристики диапазона извлечения и сообщения об ошибках

Имя файла I:\BitComet\Drupi (FLAC)\The Best Of Drupi\Drupi - The Best Of Drupi.wav

Пиковый уровень 99.7 %
Качество диапазона 100.0 %
CRC копии 70BCC20C
Копирование. OK

Ошибок не произошло

Трек 1 нет в базе данных
Трек 2 нет в базе данных
Трек 3 нет в базе данных
Трек 4 нет в базе данных
Трек 5 нет в базе данных
Трек 6 нет в базе данных
Трек 7 нет в базе данных
Трек 8 нет в базе данных
Трек 9 нет в базе данных
Трек 10 нет в базе данных
Трек 11 нет в базе данных

Ни одного трека нет в базе AccurateRip

1997 Bella E Strega 00


1. Mee humm
2. Bella e strega
3. Portami fuori
4. Pericolo
5. Bella come te
6. Be careful
7. Tirare un filo
8. Dammi una mano
9. No io no

Exact Audio Copy V0.99 prebeta 4 from 23. January 2008

Отчёт EAC об извлечении, выполненном 21. июня 2009, 11:32

Drupi / Bella e Strega

Дисковод: PLEXTOR DVDR PX-806SA Adapter: 1 ID: 1

Режим чтения. Достоверность
Использование точного потока. Да
Отключение кэша аудио. Да
Использование указателей C2. Нет

Коррекция смещения при чтении. 6
Способность читать области Lead-in и Lead-out. Нет
Заполнение пропущенных сэмплов тишиной. Да
Удаление блоков с тишиной в начале и конце. Нет
При вычислениях CRC использовались нулевые сэмплы. Да
Интерфейс. Установленный внешний ASPI-интерфейс

Выходной формат. Пользовательский кодировщик
Выбранный битрейт. 1024 kBit/s
Качество. Высокий
Добавление ID3-тэга. Нет
Утилита сжатия. C:\Program Files\Exact Audio Copy\FLAC\FLAC.EXE
Дополнительные параметры. -6 -V -T "ARTIST=%a" -T "TITLE=%t" -T "ALBUM=%g" -T "DATE=%y" -T "TRACKNUMBER=%n" -T "GENRE=%m" -T "COMMENT=%e" %s -o %d

TOC извлечённого CD

Трек | Старт | Длительность | Начальный сектор | Конечный сектор
---------------------------------------------------------------------
1 | 0:00.00 | 4:53.17 | 0 | 21991
2 | 4:53.17 | 3:21.40 | 21992 | 37106
3 | 8:14.57 | 3:45.67 | 37107 | 54048
4 | 12:00.49 | 4:13.56 | 54049 | 73079
5 | 16:14.30 | 4:18.72 | 73080 | 92501
6 | 20:33.27 | 4:59.09 | 92502 | 114935
7 | 25:32.36 | 5:00.73 | 114936 | 137508
8 | 30:33.34 | 5:03.26 | 137509 | 160259
9 | 35:36.60 | 4:39.67 | 160260 | 181251

Характеристики диапазона извлечения и сообщения об ошибках

Имя файла I:\BitComet\Drupi-Bella e Strega\Drupi - Bella e Strega.wav

Пиковый уровень 98.8 %
Качество диапазона 100.0 %
CRC копии D964781C
Копирование. OK

Ошибок не произошло

Трек 1 нет в базе данных
Трек 2 нет в базе данных
Трек 3 нет в базе данных
Трек 4 нет в базе данных
Трек 5 нет в базе данных
Трек 6 нет в базе данных
Трек 7 нет в базе данных
Трек 8 нет в базе данных
Трек 9 нет в базе данных

Ни одного трека нет в базе AccurateRip

2005 Buone Notizie 00


01. Alora via
02. Ridammi il sole
03. Tutta colpa deii’ amore
04. Oggi interroghiamo Giampiero
05. Come un bambino
06. Piera e Salvatore
07. Il tuo amore
08. Buone notizie
09. Amore amore amore
10. Io crescero
11. La mia liberta
12. Amore amico

Exact Audio Copy V0.99 prebeta 4 from 23. January 2008

Отчёт EAC об извлечении, выполненном 24. июня 2009, 20:23

Drupi / Buone Notizie

Дисковод: PLEXTOR DVDR PX-806SA Adapter: 1 ID: 1

Режим чтения. Достоверность
Использование точного потока. Да
Отключение кэша аудио. Да
Использование указателей C2. Нет

Коррекция смещения при чтении. 6
Способность читать области Lead-in и Lead-out. Нет
Заполнение пропущенных сэмплов тишиной. Да
Удаление блоков с тишиной в начале и конце. Нет
При вычислениях CRC использовались нулевые сэмплы. Да
Интерфейс. Установленный внешний ASPI-интерфейс

Выходной формат. Пользовательский кодировщик
Выбранный битрейт. 1024 kBit/s
Качество. Высокий
Добавление ID3-тэга. Нет
Утилита сжатия. C:\Program Files\Exact Audio Copy\FLAC\FLAC.EXE
Дополнительные параметры. -6 -V -T "ARTIST=%a" -T "TITLE=%t" -T "ALBUM=%g" -T "DATE=%y" -T "TRACKNUMBER=%n" -T "GENRE=%m" -T "COMMENT=%e" %s -o %d

TOC извлечённого CD

Трек | Старт | Длительность | Начальный сектор | Конечный сектор
---------------------------------------------------------------------
1 | 0:00.00 | 4:49.49 | 0 | 21723
2 | 4:49.49 | 4:45.58 | 21724 | 43156
3 | 9:35.32 | 4:23.60 | 43157 | 62941
4 | 13:59.17 | 4:13.64 | 62942 | 81980
5 | 18:13.06 | 3:20.53 | 81981 | 97033
6 | 21:33.59 | 4:15.09 | 97034 | 116167
7 | 25:48.68 | 4:03.26 | 116168 | 134418
8 | 29:52.19 | 4:51.37 | 134419 | 156280
9 | 34:43.56 | 3:38.06 | 156281 | 172636
10 | 38:21.62 | 3:58.27 | 172637 | 190513
11 | 42:20.14 | 5:32.18 | 190514 | 215431
12 | 47:52.32 | 4:31.00 | 215432 | 235756
13 | 54:55.32 | 11:04.03 | 247157 | 296959

Характеристики диапазона извлечения и сообщения об ошибках

Имя файла I:\BitComet\Drupi-Buone Notizie\Drupi - Buone Notizie.wav

Пиковый уровень 99.9 %
Качество диапазона 100.0 %
CRC копии 86A5365C
Копирование. OK

Ошибок не произошло

Трек 1 нет в базе данных
Трек 2 нет в базе данных
Трек 3 нет в базе данных
Трек 4 нет в базе данных
Трек 5 нет в базе данных
Трек 6 нет в базе данных
Трек 7 нет в базе данных
Трек 8 нет в базе данных
Трек 9 нет в базе данных
Трек 10 нет в базе данных
Трек 11 нет в базе данных
Трек 12 нет в базе данных

Ни одного трека нет в базе AccurateRip

2006 Flashback Collection (3CD) 02


CD 1
01. Piccola E Fragile
02. Sereno E'
03. Al Mercato
04. Aria Tu Sole Io
05. Io Sto Bene Insieme a Te
06. Che Estate
07. E Gia'.
08. Segui Me (Sail Away)
09. Rimani
10. Woo-o-aa
11. Mia Via
12. Bagno a Mezzanotte

CD 2
01. Sambario'
02. Qualcosa Cambiera'
03. Due
04. Gola Calda Denti Bianchi
05. Vita di Mare
06. Ma Poi
07. In un Motel
08. Parlavo Sognavo
08. In Barca
10. Aiutami
11. Insieme Noi
12. Tutto Bene

CD 3
01. Sabato Sera
02. Vado Via
03. Mille Lire
04. E Io.
05. Geloso Io.
06. L'Albero
07. Che Posto E'
08. Non Sei Piu' Tu
09. Due Corpi
10. Con Fantasia
11. Sotto La Tenda
12. Canto Per Te

Exact Audio Copy V0.99 prebeta 4 from 23. January 2008

Отчёт EAC об извлечении, выполненном 23. июля 2009, 10:13

Drupi / Flashback Collection (CD 1)

Дисковод: PIONEER DVD-RW DVR-216R Adapter: 1 ID: 1

Режим чтения. Достоверность
Использование точного потока. Да
Отключение кэша аудио. Да
Использование указателей C2. Нет

Коррекция смещения при чтении. 96
Способность читать области Lead-in и Lead-out. Нет
Заполнение пропущенных сэмплов тишиной. Да
Удаление блоков с тишиной в начале и конце. Нет
При вычислениях CRC использовались нулевые сэмплы. Да
Интерфейс. Установленный внешний ASPI-интерфейс

Выходной формат. Пользовательский кодировщик
Выбранный битрейт. 1024 kBit/s
Качество. Высокий
Добавление ID3-тэга. Нет
Утилита сжатия. C:\Program Files\Exact Audio Copy\FLAC\FLAC.EXE
Дополнительные параметры. -6 -V -T "ARTIST=%a" -T "TITLE=%t" -T "ALBUM=%g" -T "DATE=%y" -T "TRACKNUMBER=%n" -T "GENRE=%m" -T "COMMENT=%e" %s -o %d

TOC извлечённого CD

Трек | Старт | Длительность | Начальный сектор | Конечный сектор
---------------------------------------------------------------------
1 | 0:00.00 | 4:31.50 | 0 | 20374
2 | 4:31.50 | 3:58.74 | 20375 | 38298
3 | 8:30.49 | 3:12.48 | 38299 | 52746
4 | 11:43.22 | 3:54.13 | 52747 | 70309
5 | 15:37.35 | 3:30.54 | 70310 | 86113
6 | 19:08.14 | 3:52.58 | 86114 | 103571
7 | 23:00.72 | 4:11.18 | 103572 | 122414
8 | 27:12.15 | 3:51.02 | 122415 | 139741
9 | 31:03.17 | 3:41.09 | 139742 | 156325
10 | 34:44.26 | 5:22.69 | 156326 | 180544
11 | 40:07.20 | 2:50.64 | 180545 | 193358
12 | 42:58.09 | 2:46.21 | 193359 | 205829

Характеристики диапазона извлечения и сообщения об ошибках

Имя файла I:\BitComet\Drupi - 10 CD - 11 Альбомов (FLAC)\Flashback Collection\CD 1\Drupi - Flashback Collection.wav

Пиковый уровень 100.0 %
Качество диапазона 100.0 %
CRC копии 9C475016
Копирование. OK

Ошибок не произошло

Exact Audio Copy V0.99 prebeta 4 from 23. January 2008

Отчёт EAC об извлечении, выполненном 23. июля 2009, 10:34

Drupi / Flashback Collection (CD 2)

Дисковод: PIONEER DVD-RW DVR-216R Adapter: 1 ID: 1

Режим чтения. Достоверность
Использование точного потока. Да
Отключение кэша аудио. Да
Использование указателей C2. Нет

Коррекция смещения при чтении. 96
Способность читать области Lead-in и Lead-out. Нет
Заполнение пропущенных сэмплов тишиной. Да
Удаление блоков с тишиной в начале и конце. Нет
При вычислениях CRC использовались нулевые сэмплы. Да
Интерфейс. Установленный внешний ASPI-интерфейс

Выходной формат. Пользовательский кодировщик
Выбранный битрейт. 1024 kBit/s
Качество. Высокий
Добавление ID3-тэга. Нет
Утилита сжатия. C:\Program Files\Exact Audio Copy\FLAC\FLAC.EXE
Дополнительные параметры. -6 -V -T "ARTIST=%a" -T "TITLE=%t" -T "ALBUM=%g" -T "DATE=%y" -T "TRACKNUMBER=%n" -T "GENRE=%m" -T "COMMENT=%e" %s -o %d

TOC извлечённого CD

Трек | Старт | Длительность | Начальный сектор | Конечный сектор
---------------------------------------------------------------------
1 | 0:00.00 | 4:18.23 | 0 | 19372
2 | 4:18.23 | 3:12.52 | 19373 | 33824
3 | 7:31.00 | 3:36.45 | 33825 | 50069
4 | 11:07.45 | 3:41.36 | 50070 | 66680
5 | 14:49.06 | 3:06.47 | 66681 | 80677
6 | 17:55.53 | 4:07.28 | 80678 | 99230
7 | 22:03.06 | 3:11.59 | 99231 | 113614
8 | 25:14.65 | 5:34.42 | 113615 | 138706
9 | 30:49.32 | 3:30.35 | 138707 | 154491
10 | 34:19.67 | 3:19.51 | 154492 | 169467
11 | 37:39.43 | 3:14.25 | 169468 | 184042
12 | 40:53.68 | 3:10.08 | 184043 | 198300

Характеристики диапазона извлечения и сообщения об ошибках

Имя файла I:\BitComet\Drupi - 10 CD - 11 Альбомов (FLAC)\Flashback Collection\CD 2\Drupi - Flashback Collection (CD 2).wav

Пиковый уровень 100.0 %
Качество диапазона 100.0 %
CRC копии 2EFCC63E
Копирование. OK

Ошибок не произошло

Exact Audio Copy V0.99 prebeta 4 from 23. January 2008

Отчёт EAC об извлечении, выполненном 23. июля 2009, 15:22

Drupi / Flashback Collection (CD 3)

Дисковод: PIONEER DVD-RW DVR-216R Adapter: 1 ID: 1

Режим чтения. Достоверность
Использование точного потока. Да
Отключение кэша аудио. Да
Использование указателей C2. Нет

Коррекция смещения при чтении. 96
Способность читать области Lead-in и Lead-out. Нет
Заполнение пропущенных сэмплов тишиной. Да
Удаление блоков с тишиной в начале и конце. Нет
При вычислениях CRC использовались нулевые сэмплы. Да
Интерфейс. Установленный внешний ASPI-интерфейс

Выходной формат. Пользовательский кодировщик
Выбранный битрейт. 1024 kBit/s
Качество. Высокий
Добавление ID3-тэга. Нет
Утилита сжатия. C:\Program Files\Exact Audio Copy\FLAC\FLAC.EXE
Дополнительные параметры. -6 -V -T "ARTIST=%a" -T "TITLE=%t" -T "ALBUM=%g" -T "DATE=%y" -T "TRACKNUMBER=%n" -T "GENRE=%m" -T "COMMENT=%e" %s -o %d

TOC извлечённого CD

Трек | Старт | Длительность | Начальный сектор | Конечный сектор
---------------------------------------------------------------------
1 | 0:00.00 | 3:50.40 | 0 | 17289
2 | 3:50.40 | 4:03.61 | 17290 | 35575
3 | 7:54.26 | 5:02.02 | 35576 | 58227
4 | 12:56.28 | 4:25.46 | 58228 | 78148
5 | 17:21.74 | 4:27.21 | 78149 | 98194
6 | 21:49.20 | 3:08.07 | 98195 | 112301
7 | 24:57.27 | 4:54.12 | 112302 | 134363
8 | 29:51.39 | 3:32.49 | 134364 | 150312
9 | 33:24.13 | 2:39.63 | 150313 | 162300
10 | 36:04.01 | 3:24.45 | 162301 | 177645
11 | 39:28.46 | 3:55.01 | 177646 | 195271
12 | 43:23.47 | 4:35.69 | 195272 | 215965

Характеристики диапазона извлечения и сообщения об ошибках

Имя файла I:\BitComet\Drupi - 10 CD - 11 Альбомов (FLAC)\Flashback Collection\CD 3\Drupi - Flashback Collection (CD 3).wav

Пиковый уровень 100.0 %
Качество диапазона 100.0 %
CRC копии 92C9C8BA
Копирование. OK

Ошибок не произошло

2006 Le Piu Belle Canzoni Di Drupi 00


01. Regalami Un Sorriso
02. Fammi Volare
03. Le Vecchie
04. Un Vero Amore
05. Canta
06. Fa Che Non Mi Manchi
07. La Mia Canzone Al Vento
08. Lascero
09. Queste Mani
10. Stai Con Me
11. Stasera
12. Soli

Exact Audio Copy V0.99 prebeta 4 from 23. January 2008

Отчёт EAC об извлечении, выполненном 23. июня 2009, 21:47

Drupi / Le piu belle canzoni di Drupi

Дисковод: PLEXTOR DVDR PX-806SA Adapter: 1 ID: 1

Режим чтения. Достоверность
Использование точного потока. Да
Отключение кэша аудио. Да
Использование указателей C2. Нет

Коррекция смещения при чтении. 6
Способность читать области Lead-in и Lead-out. Нет
Заполнение пропущенных сэмплов тишиной. Да
Удаление блоков с тишиной в начале и конце. Нет
При вычислениях CRC использовались нулевые сэмплы. Да
Интерфейс. Установленный внешний ASPI-интерфейс

Выходной формат. Пользовательский кодировщик
Выбранный битрейт. 1024 kBit/s
Качество. Высокий
Добавление ID3-тэга. Нет
Утилита сжатия. C:\Program Files\Exact Audio Copy\FLAC\FLAC.EXE
Дополнительные параметры. -6 -V -T "ARTIST=%a" -T "TITLE=%t" -T "ALBUM=%g" -T "DATE=%y" -T "TRACKNUMBER=%n" -T "GENRE=%m" -T "COMMENT=%e" %s -o %d

TOC извлечённого CD

Трек | Старт | Длительность | Начальный сектор | Конечный сектор
---------------------------------------------------------------------
1 | 0:00.00 | 4:20.00 | 0 | 19499
2 | 4:20.00 | 3:59.60 | 19500 | 37484
3 | 8:19.60 | 3:54.12 | 37485 | 55046
4 | 12:13.72 | 4:22.38 | 55047 | 74734
5 | 16:36.35 | 4:16.70 | 74735 | 94004
6 | 20:53.30 | 5:18.55 | 94005 | 117909
7 | 26:12.10 | 4:53.15 | 117910 | 139899
8 | 31:05.25 | 4:36.05 | 139900 | 160604
9 | 35:41.30 | 3:51.25 | 160605 | 177954
10 | 39:32.55 | 4:11.17 | 177955 | 196796
11 | 43:43.72 | 4:21.45 | 196797 | 216416
12 | 48:05.42 | 3:40.20 | 216417 | 232936

Характеристики диапазона извлечения и сообщения об ошибках

Имя файла I:\BitComet\Drupi-Le piu belle canzoni di Drupi\Drupi - Le piu belle canzoni di Drupi.wav

Пиковый уровень 100.0 %
Качество диапазона 100.0 %
CRC копии 63C16060
Копирование. OK

Ошибок не произошло

Трек 1 нет в базе данных
Трек 2 нет в базе данных
Трек 3 нет в базе данных
Трек 4 нет в базе данных
Трек 5 нет в базе данных
Трек 6 нет в базе данных
Трек 7 нет в базе данных
Трек 8 нет в базе данных
Трек 9 нет в базе данных
Трек 10 нет в базе данных
Трек 11 нет в базе данных
Трек 12 нет в базе данных

Ни одного трека нет в базе AccurateRip

2007 Fuori Target 00


01. Parla Con Me (Singolo)
02. Lo Voglio Piccolo
03. Ma Io Rinascero
04. Le Mele Che Sforni
05. E Per Te Che Guariro
06. Tu Mi Dirai Di Si
07. Piccola Cosi
08. Sia Quel Che Sia
09. Dori Do
10. Imparero
11. E Finalmente Canto
Bonus Track
12.

Exact Audio Copy V0.99 prebeta 4 from 23. January 2008

Отчёт EAC об извлечении, выполненном 21. июля 2009, 20:24

Drupi / Fuori Target

Дисковод: PIONEER DVD-RW DVR-216R Adapter: 1 ID: 1

Режим чтения. Достоверность
Использование точного потока. Да
Отключение кэша аудио. Да
Использование указателей C2. Нет

Коррекция смещения при чтении. 96
Способность читать области Lead-in и Lead-out. Нет
Заполнение пропущенных сэмплов тишиной. Да
Удаление блоков с тишиной в начале и конце. Нет
При вычислениях CRC использовались нулевые сэмплы. Да
Интерфейс. Установленный внешний ASPI-интерфейс

Выходной формат. Пользовательский кодировщик
Выбранный битрейт. 1024 kBit/s
Качество. Высокий
Добавление ID3-тэга. Нет
Утилита сжатия. C:\Program Files\Exact Audio Copy\FLAC\FLAC.EXE
Дополнительные параметры. -6 -V -T "ARTIST=%a" -T "TITLE=%t" -T "ALBUM=%g" -T "DATE=%y" -T "TRACKNUMBER=%n" -T "GENRE=%m" -T "COMMENT=%e" %s -o %d

TOC извлечённого CD

Трек | Старт | Длительность | Начальный сектор | Конечный сектор
---------------------------------------------------------------------
1 | 0:00.00 | 4:40.46 | 0 | 21045
2 | 4:40.46 | 4:28.70 | 21046 | 41215
3 | 9:09.41 | 4:29.19 | 41216 | 61409
4 | 13:38.60 | 3:39.06 | 61410 | 77840
5 | 17:17.66 | 4:03.25 | 77841 | 96090
6 | 21:21.16 | 3:53.14 | 96091 | 113579
7 | 25:14.30 | 4:02.65 | 113580 | 131794
8 | 29:17.20 | 3:51.67 | 131795 | 149186
9 | 33:09.12 | 4:46.46 | 149187 | 170682
10 | 37:55.58 | 4:05.46 | 170683 | 189103
11 | 42:01.29 | 4:38.43 | 189104 | 209996
12 | 46:39.72 | 3:39.45 | 209997 | 226466

Характеристики диапазона извлечения и сообщения об ошибках

Имя файла I:\BitComet\Drupi-Fuori Target\Drupi - Fuori Target.wav

Пиковый уровень 100.0 %
Качество диапазона 100.0 %
CRC копии ED365242
Копирование. OK

Ошибок не произошло

Drupi дискография скачать торрент:

  • скачать
  • скачать
  • Другие статьи