File-Portal

Герои Энвелла Торрент Скачать

Рейтинг: 4.9/5.0 (223 проголосовавших)

Категория: Торрент-файлы

Описание

Скачать Герои Энвелла (2017) WEB-DLRip

- Герои Энвелла (2017) WEB-DLRip (сезон 1, серия 01 из 26) -

Год выпуска: 2017
Жанр: Детский, Компьютерная анимация
Производство: Россия (Анимационная Студия "Паровоз")
Персонажи: Арт (Артем Мещеряков), Вик (Виктор Сменкин), Фил (Филипп Черных), Кира (Кира Сменкина)
Описание:
«Герои Энвелла» — российский фантастический мультсериал, выполненный в 3D-технологии, который будет наиболее интересен для детей 8-14 лет.
Наше время. Санкт-Петербург. Четверо друзей Арт, Кира, Фил и Вик — самые крутые геймеры в школе. Однажды они находят необычный ноутбук с игрой «Герои Энвелла», который оказывается порталом в мир игры с реальными приключениями и реальными опасностями.
Мир игры представляет собой смесь Средневековья, стимпанка и технологий далекого будущего. Никогда не угадаешь, что ждет игроков «Героев Энвелла». Как и антураж, логика игры непредсказуема. Начавшийся квест здесь легко превратится в гонку, шутер или логическую задачку. Но точно одно — скучно и легко не будет.
Продолжительность:

00:11:00 серия
Качество видео: WEB-DLRip
Перевод: Не требуется
Субтитры: Отсутствуют
Видео: AVC/H.264, 1280x720,

2000 kbps
Аудио: Русский: AС3, 2 ch, 192 kbps

Общее
Уникальный идентификатор : 292635462433826001065843678007944944853 (0xDC278A3CB99EB5DF415B249C61621CD5)
Полное имя : C:\Герои Энвелла (720p-AVC)\01_Новая игра.mkv
Формат : Matroska
Версия формата : Version 4 / Version 2
Размер файла : 160 Мбайт
Продолжительность : 11 м. 0 с.
Общий поток : 2029 Кбит/сек
Программа кодирования : Lavf57.25.100
Библиотека кодирования : Lavf57.25.100 / Lavf57.25.100
Видео
Идентификатор : 1
Формат : AVC
Формат/Информация : Advanced Video Codec
Профиль формата : [email protected]
Параметр CABAC формата : Да
Параметр ReFrames формата : 4 кадра
Идентификатор кодека : V_MPEG4/ISO/AVC
Продолжительность : 11 м. 0 с.
Битрейт : 1796 Кбит/сек
Ширина : 1280 пикселей
Высота : 720 пикселей
Соотношение сторон : 16:9
Режим частоты кадров : Постоянный
Частота кадров : 25,000 кадров/сек
Цветовое пространство : YUV
Субдискретизация насыщенности : 4:2:0
Битовая глубина : 8 бит
Тип развёртки : Прогрессивная
Бит/(Пиксели*Кадры) : 0.078
Размер потока : 141 Мбайт (89%)
Библиотека кодирования : x264 core 148 r2643 5c65704
Настройки программы : cabac=1 / ref=3 / deblock=1:0:0 / analyse=0x3:0x133 / me=hex / subme=7 / psy=1 / psy_rd=1.00:0.00 / mixed_ref=1 / me_range=16 / chroma_me=1 / trellis=1 / 8x8dct=1 / cqm=0 / deadzone=21,11 / fast_pskip=1 / chroma_qp_offset=-2 / threads=3 / lookahead_threads=1 / sliced_threads=0 / nr=0 / decimate=1 / interlaced=0 / bluray_compat=0 / constrained_intra=0 / bframes=3 / b_pyramid=2 / b_adapt=1 / b_bias=0 / direct=1 / weightb=1 / open_gop=0 / weightp=2 / keyint=250 / keyint_min=25 / scenecut=40 / intra_refresh=0 / rc_lookahead=40 / rc=crf / mbtree=1 / crf=20.0 / qcomp=0.60 / qpmin=10 / qpmax=51 / qpstep=4 / ip_ratio=1.40 / aq=1:1.00
Default : Да
Forced : Нет
DURATION : 00:11:00.200000000
Аудио
Идентификатор : 2
Формат : AC-3
Формат/Информация : Audio Coding 3
Расширение режима : CM (complete main)
Параметр Endianness формата : Big
Идентификатор кодека : A_AC3
Продолжительность : 11 м. 0 с.
Вид битрейта : Постоянный
Битрейт : 192 Кбит/сек
Каналы : 2 канала
Расположение каналов : Front: L R
Частота : 44,1 КГц
Частота кадров : 28,711 кадров/сек (1536 spf)
Битовая глубина : 16 бит
Метод сжатия : С потерями
Задержка видео : -40 мс.
Размер потока : 15,1 Мбайт (9%)
Default : Да
Forced : Нет
DURATION : 00:11:00.152000000

Список серий: Основные персонажи:

Арт (Артем Мещеряков):
• Лидер команды. Храбрый, решительный и ответственный. Но в то же время — слишком требовательный к остальным и к себе. Победа для Арта — это его личное дело. В любых ошибках Арт так же склонен искать свою вину.
• Девиз — «Ребят, давайте соберемся».
• В виртуальном мире игровой персонаж Арта — рыцарь с мечом-пулеметом и силовым щитом. Арт всегда смело бросается в ближний бой, а в случае опасности готов укрыть своих товарищей за силовым щитом.
• В реальной жизни Арт учится выше среднего. Пятерка для него — «Ну, ничего удивительного, я же заслужил» (хотя внутри Арт волнуется: ого! Пятерка! Ничего себе!).
• Манера речи — Арт соображает и говорит быстро, часто использует восклицания или короткие команды.
Вик (Виктор Сменкин):
• Отличник-зануда. Начитанный, осторожный, паникер. Но кроме того Вик очень труслив. Его мозг постоянно просчитывает все плохие исходы любой ситуации. Поэтому Вик — главный пессимист в команде. Но в душе романтичный мечтатель. Строгое воспитание и буйное воображение заставляют его бояться всего, а особенно — контактов с посторонними.
• Девиз — «Ну вот, это все-таки произошло. Я же говорил!»
• В игре персонаж Вика — это строитель. Он умеет возводить стены, ловушки и катапульты-пулеметы — да, даже в игре Вик предпочитает отсиживаться в тылу.
• В реальной жизни Вик любит спокойные игры вроде «Фермы». Живет с мамой и бабушкой, обе очень строги с Виком. Вик должен учиться, учиться и еще раз учиться. Уже даже четверка в дневнике воспринимается в семье как повод нанять репетитора.
• Манера речи — Вик запинается, мямлит и не заканчивает большинство начатых сложных предложений. Если только это не крик паники — тут Вику нет равных. Если бы знаки препинания отражались на лице говорящего, Вик был бы весь покрыт многоточиями.
Фил (Филипп Черных):
• Раздолбай-гедонист. Энергичный, жизнерадостный, самоуверенный. Однако общаться с Филом могут только избранные. Реальный мир, по мнению Фила, создан только для того, чтобы мешать ему играть. Поэтому Фил с пренебрежением относится к отношениям между друзьями, легко может обидеть и даже не догадаться об этом.
• Девиз — «Пацаны, смотрите, как я умею».
• В «Героев Энвелла» Фил играет за волшебника и может использовать огромное количество разных заклинаний.
• В реальной жизни Фил — единственный ребенок в семье, его родители — богатые предприниматели-строители. Конечно, они избаловали своего сына. У Фила нет недостатка ни в чем, поэтому он может целиком сосредоточиться на любимом деле — на видеоиграх. В школе Фил — типичный троечник.
• Манера речи — Фил часто говорит на малопонятном жаргоне, состоящем из терминов компьютерных игр и англицизмов. Фил говорит с пулеметной скоростью и в полной уверенности, что его понимают. В школе на уроках Филу приходится с видимым усилием переключаться на нормальную речь. Но Арт, Вик и Кира привыкли к Филу и даже понимают его. Часто обидные шутки Фила попадают в яблочко.
Кира (Кира Сменкина):
• Эгоистичная одиночка, двоечница, хулиганка и родная сестра Вика. Кира старается держаться обособленно и независимо, любит показывать свою силу и самоутверждаться за счет других. Но на самом деле очень привязана к своим однокомандникам.
• Девиз — «Так и быть. В последний раз вас спасаю».
• Персонаж Киры — скрытный ловкий вор-арбалетчик — повторяет ее черты в реальном мире. Кира хорошо устраивает диверсии в тылу, но проиграет любую лобовую стычку без поддержки команды.
• В реальной жизни родители Киры и Вика разведены. Вик живет с мамой, а Кира — с отцом. Кира — «свой парень», но очень обижается, когда друзья не видят в ней классную девчонку. Ревнует друзей, а особенно Арта.
• Манера речи — Кира говорит обрывисто и часто грубо, в основном, чтобы сокомандники поняли, как она собирается действовать. Если Фил шутит часто, глупо и не смешно, то Кира говорит редко, едко и метко.

Скриншоты:
Аркадий Паровозов
Бумажки
Волшебный фонарь
Герои Энвелла
Лео и Тиг
Ми-ми-мишки
Сказочный патруль Герои Энвелла на Torbina.com

герои энвелла торрент скачать:

  • скачать
  • скачать
  • Другие статьи

    Герои Энвелла мультфильм смотреть онлайн все серии

    Герои Энвелла (2017)


    Герои Энвелла смотреть мультфильм онлайн на vinixmult.net бесплатно. Четверо учеников увлеклись новой браузерной игрой, проходить которую они даже не брезгали на занятиях. Из-за чего учительница, сделав им замечание забрала у них также телефоны. Тогда Виктор, Филипп, Артём и Кира не долга думая, решаются пробраться на перемене в учительскую. Где намерены, отыскать свои мобильники, но к сожалению ребята их там не находят. Один из них увидел ноутбук, тогда друзья решают продолжить дальнейшее прохождение через него.

    Но вместо игры, необычайным образом они сами попадают виртуальную параллельную реальность средневековья, с переплетением фантастических технологий будущего. Где все действия реальны. Все происходящее настолько непонятно и совсем непредсказуемо, что теперь жизнь всех персонажей зависит исключительно на прямую от них и их действий. Пройдут ли они очередное серьезное испытание в квест? Друзья в замешательстве, ведь начать заново игру как раньше нет возможности. Все случившееся с ребятами происходит теперь по настоящему и каждый шаг нужно обдумать, чтобы дойти до финиша.

    • Название мультфильма: Герои Энвелла
    • Год: 2017
    • Серия: 11 минут
    Герои Энвелла смотреть все серии подряд 1 сезон без перерыва

    Добавлена 5 серия

    Поставь свой рейтинг!

    Рейтинг мультфильма: 8,40 из 10
    Голосовало человек: 5

    Также сейчас смотрят:

    Рик и Морти 1,2,3 сезон

    Подозрительная сова 1, 2, 3 сезон

    Мои маленькие пони 7 сезон

    Утиные истории 2017

    Добавить комментарий Отменить ответ

    Герои Энвелла (2017) (Серии 1-5) — Русские мультики (Россия) — Новости

    Герои Энвелла (2017) (Серии 1-5)

    Год: 2017
    Жанр: приключения, фантастика
    Страна, Студия: Россия. студия Паровоз
    Время: 11 минут серия

    «Герои Энвелла» — российский фантастический мультсериал, выполненный в 3D-технологии, который будет наиболее интересен для детей 8?14 лет. Наше время. Санкт-Петербург. Четверо друзей Арт, Кира, Фил и Вик — самые крутые геймеры в школе. Однажды они находят необычный ноутбук с игрой «Герои Энвелла», который оказывается порталом в мир игры с реальными приключениями и реальными опасностями.

    Мир игры представляет собой смесь Средневековья, стимпанка и технологий далекого будущего. Никогда не угадаешь, что ждет игроков «Героев Энвелла». Как и антураж, логика игры непредсказуема. Начавшийся квест здесь легко превратится в гонку, шутер или логическую задачку. Но точно одно — скучно и легко не будет.

    Выбирайте нужную серию

    Герои Энвелла (2017) WEB-DLRip

    Раздача является мультитрекерной — учтите, количество раздающих не будет совпадать с количеством участников на сайте (скачивание на клиентской стороне зависит от настроек µTorrent клиент программы, настройки -> Включить DHT, Обмен пирами и Поиск лок-х пиров).
    Если висит надпись, пиры по нулям - не бойтесь, возможность скачать повторно раздачу - есть. Попробуйте, в случае отказа - прокоментируйте или нажмите на "Позвать скачавших".

    Скачать .torrent файл (основная ссылка для скачивания файла)
    Смотреть / Слушать онлайн просмотр (ссылка для просмотра файла через плагин 'Torrent Stream')
    Magnet-ссылка (альтернативная ссылка для скачивания файла)

    Герои Энвелла (2017) WEB-DLRip (сезон 1, серия 01 из 26)
    Год выпуска: 2017
    Жанр: Детский, Компьютерная анимация
    Производство: Россия (Анимационная Студия "Паровоз")

    Персонажи: Арт (Артем Мещеряков), Вик (Виктор Сменкин), Фил (Филипп Черных), Кира (Кира Сменкина)

    Описание:
    «Герои Энвелла» — российский фантастический мультсериал, выполненный в 3D-технологии, который будет наиболее интересен для детей 8-14 лет.

    Наше время. Санкт-Петербург. Четверо друзей Арт, Кира, Фил и Вик — самые крутые геймеры в школе. Однажды они находят необычный ноутбук с игрой «Герои Энвелла», который оказывается порталом в мир игры с реальными приключениями и реальными опасностями.

    Мир игры представляет собой смесь Средневековья, стимпанка и технологий далекого будущего. Никогда не угадаешь, что ждет игроков «Героев Энвелла». Как и антураж, логика игры непредсказуема. Начавшийся квест здесь легко превратится в гонку, шутер или логическую задачку. Но точно одно — скучно и легко не будет.

    2000 kbps
    Аудио: Русский: AС3, 2 ch, 192 kbps


    Код: выделить всеОбщее
    Уникальный идентификатор : 292635462433826001065843678007944944853 (0xDC278A3CB99EB5DF415B249C61621CD5)
    Полное имя : C:\Герои Энвелла (720p-AVC)\01_Новая игра.mkv
    Формат : Matroska
    Версия формата : Version 4 / Version 2
    Размер файла : 160 Мбайт
    Продолжительность : 11 м. 0 с.
    Общий поток : 2029 Кбит/сек
    Программа кодирования : Lavf57.25.100
    Библиотека кодирования : Lavf57.25.100 / Lavf57.25.100

    Видео
    Идентификатор : 1
    Формат : AVC
    Формат/Информация : Advanced Video Codec
    Профиль формата : High@L3.1
    Параметр CABAC формата : Да
    Параметр ReFrames формата : 4 кадра
    Идентификатор кодека : V_MPEG4/ISO/AVC
    Продолжительность : 11 м. 0 с.
    Битрейт : 1796 Кбит/сек
    Ширина : 1280 пикселей
    Высота : 720 пикселей
    Соотношение сторон : 16:9
    Режим частоты кадров : Постоянный
    Частота кадров : 25,000 кадров/сек
    Цветовое пространство : YUV
    Субдискретизация насыщенности : 4:2:0
    Битовая глубина : 8 бит
    Тип развёртки : Прогрессивная
    Бит/(Пиксели*Кадры) : 0.078
    Размер потока : 141 Мбайт (89%)
    Библиотека кодирования : x264 core 148 r2643 5c65704
    Настройки программы : cabac=1 / ref=3 / deblock=1:0:0 / analyse=0x3:0x133 / me=hex / subme=7 / psy=1 / psy_rd=1.00:0.00 / mixed_ref=1 / me_range=16 / chroma_me=1 / trellis=1 / 8x8dct=1 / cqm=0 / deadzone=21,11 / fast_pskip=1 / chroma_qp_offset=-2 / threads=3 / lookahead_threads=1 / sliced_threads=0 / nr=0 / decimate=1 / interlaced=0 / bluray_compat=0 / constrained_intra=0 / bframes=3 / b_pyramid=2 / b_adapt=1 / b_bias=0 / direct=1 / weightb=1 / open_gop=0 / weightp=2 / keyint=250 / keyint_min=25 / scenecut=40 / intra_refresh=0 / rc_lookahead=40 / rc=crf / mbtree=1 / crf=20.0 / qcomp=0.60 / qpmin=10 / qpmax=51 / qpstep=4 / ip_ratio=1.40 / aq=1:1.00
    Default : Да
    Forced : Нет
    DURATION : 00:11:00.200000000

    Аудио
    Идентификатор : 2
    Формат : AC-3
    Формат/Информация : Audio Coding 3
    Расширение режима : CM (complete main)
    Параметр Endianness формата : Big
    Идентификатор кодека : A_AC3
    Продолжительность : 11 м. 0 с.
    Вид битрейта : Постоянный
    Битрейт : 192 Кбит/сек
    Каналы : 2 канала
    Расположение каналов : Front: L R
    Частота : 44,1 КГц
    Частота кадров : 28,711 кадров/сек (1536 spf)
    Битовая глубина : 16 бит
    Метод сжатия : С потерями
    Задержка видео : -40 мс.
    Размер потока : 15,1 Мбайт (9%)
    Default : Да
    Forced : Нет
    DURATION : 00:11:00.152000000

    Нажмите чтобы закрыть спойлер: MediaInfo

    Нажмите чтобы закрыть спойлер: Список серий:


    Арт (Артем Мещеряков):
    Лидер команды. Храбрый, решительный и ответственный. Но в то же время — слишком требовательный к остальным и к себе. Победа для Арта — это его личное дело. В любых ошибках Арт так же склонен искать свою вину.
    Девиз — «Ребят, давайте соберемся».
    В виртуальном мире игровой персонаж Арта — рыцарь с мечом-пулеметом и силовым щитом. Арт всегда смело бросается в ближний бой, а в случае опасности готов укрыть своих товарищей за силовым щитом.
    В реальной жизни Арт учится выше среднего. Пятерка для него — «Ну, ничего удивительного, я же заслужил» (хотя внутри Арт волнуется: ого! Пятерка! Ничего себе!).
    Манера речи — Арт соображает и говорит быстро, часто использует восклицания или короткие команды.

    Вик (Виктор Сменкин):
    Отличник-зануда. Начитанный, осторожный, паникер. Но кроме того Вик очень труслив. Его мозг постоянно просчитывает все плохие исходы любой ситуации. Поэтому Вик — главный пессимист в команде. Но в душе романтичный мечтатель. Строгое воспитание и буйное воображение заставляют его бояться всего, а особенно — контактов с посторонними.
    Девиз — «Ну вот, это все-таки произошло. Я же говорил!»
    В игре персонаж Вика — это строитель. Он умеет возводить стены, ловушки и катапульты-пулеметы — да, даже в игре Вик предпочитает отсиживаться в тылу.
    В реальной жизни Вик любит спокойные игры вроде «Фермы». Живет с мамой и бабушкой, обе очень строги с Виком. Вик должен учиться, учиться и еще раз учиться. Уже даже четверка в дневнике воспринимается в семье как повод нанять репетитора.
    Манера речи — Вик запинается, мямлит и не заканчивает большинство начатых сложных предложений. Если только это не крик паники — тут Вику нет равных. Если бы знаки препинания отражались на лице говорящего, Вик был бы весь покрыт многоточиями.

    Фил (Филипп Черных):
    Раздолбай-гедонист. Энергичный, жизнерадостный, самоуверенный. Однако общаться с Филом могут только избранные. Реальный мир, по мнению Фила, создан только для того, чтобы мешать ему играть. Поэтому Фил с пренебрежением относится к отношениям между друзьями, легко может обидеть и даже не догадаться об этом.
    Девиз — «Пацаны, смотрите, как я умею».
    В «Героев Энвелла» Фил играет за волшебника и может использовать огромное количество разных заклинаний.
    В реальной жизни Фил — единственный ребенок в семье, его родители — богатые предприниматели-строители. Конечно, они избаловали своего сына. У Фила нет недостатка ни в чем, поэтому он может целиком сосредоточиться на любимом деле — на видеоиграх. В школе Фил — типичный троечник.
    Манера речи — Фил часто говорит на малопонятном жаргоне, состоящем из терминов компьютерных игр и англицизмов. Фил говорит с пулеметной скоростью и в полной уверенности, что его понимают. В школе на уроках Филу приходится с видимым усилием переключаться на нормальную речь. Но Арт, Вик и Кира привыкли к Филу и даже понимают его. Часто обидные шутки Фила попадают в яблочко.

    Кира (Кира Сменкина):
    Эгоистичная одиночка, двоечница, хулиганка и родная сестра Вика. Кира старается держаться обособленно и независимо, любит показывать свою силу и самоутверждаться за счет других. Но на самом деле очень привязана к своим однокомандникам.
    Девиз — «Так и быть. В последний раз вас спасаю».
    Персонаж Киры — скрытный ловкий вор-арбалетчик — повторяет ее черты в реальном мире. Кира хорошо устраивает диверсии в тылу, но проиграет любую лобовую стычку без поддержки команды.
    В реальной жизни родители Киры и Вика разведены. Вик живет с мамой, а Кира — с отцом. Кира — «свой парень», но очень обижается, когда друзья не видят в ней классную девчонку. Ревнует друзей, а особенно Арта.
    Манера речи — Кира говорит обрывисто и часто грубо, в основном, чтобы сокомандники поняли, как она собирается действовать. Если Фил шутит часто, глупо и не смешно, то Кира говорит редко, едко и метко.

    Нажмите чтобы закрыть спойлер: Основные персонажи:

    Все мультфильмы студии "Паровоз" на NoName Club:


    Аркадий Паровозов
    Бумажки
    Волшебный фонарь
    Герои Энвелла
    Лео и Тиг
    Ми-ми-мишки
    Сказочный патруль

    Нажмите чтобы закрыть спойлер: Все мультфильмы студии "Паровоз" на NoName Club:

    Герои Энвелла (2017) WEB-DLRip

    Раздача является мультитрекерной — учтите, количество раздающих не будет совпадать с количеством участников на сайте (скачивание на клиентской стороне зависит от настроек µTorrent клиент программы, настройки -> Включить DHT, Обмен пирами и Поиск лок-х пиров).
    Если висит надпись, пиры по нулям - не бойтесь, возможность скачать повторно раздачу - есть. Попробуйте, в случае отказа - прокоментируйте или нажмите на "Позвать скачавших".

    Скачать .torrent файл (основная ссылка для скачивания файла)
    Смотреть / Слушать онлайн просмотр (ссылка для просмотра файла через плагин 'Torrent Stream')
    Magnet-ссылка (альтернативная ссылка для скачивания файла)

    Герои Энвелла (2017) WEB-DLRip (серии 01-02)
    Год выпуска: 2017
    Жанр: Детский, Компьютерная анимация
    Производство: Россия (Анимационная Студия "Паровоз")

    Персонажи: Арт (Артем Мещеряков), Вик (Виктор Сменкин), Фил (Филипп Черных), Кира (Кира Сменкина)

    Описание: «Герои Энвелла» — российский фантастический мультсериал, выполненный в 3D-технологии, который будет наиболее интересен для детей 8-14 лет.

    Наше время. Санкт-Петербург. Четверо друзей Арт, Кира, Фил и Вик — самые крутые геймеры в школе. Однажды они находят необычный ноутбук с игрой «Герои Энвелла», который оказывается порталом в мир игры с реальными приключениями и реальными опасностями.

    Мир игры представляет собой смесь Средневековья, стимпанка и технологий далекого будущего. Никогда не угадаешь, что ждет игроков «Героев Энвелла». Как и антураж, логика игры непредсказуема. Начавшийся квест здесь легко превратится в гонку, шутер или логическую задачку. Но точно одно — скучно и легко не будет.

    2000 kbps
    Аудио: Русский: AС3, 2 ch, 192 kbps


    Код: выделить всеОбщее
    Уникальный идентификатор : 292635462433826001065843678007944944853 (0xDC278A3CB99EB5DF415B249C61621CD5)
    Полное имя : C:\Герои Энвелла (720p-AVC)\01_Новая игра.mkv
    Формат : Matroska
    Версия формата : Version 4 / Version 2
    Размер файла : 160 Мбайт
    Продолжительность : 11 м. 0 с.
    Общий поток : 2029 Кбит/сек
    Программа кодирования : Lavf57.25.100
    Библиотека кодирования : Lavf57.25.100 / Lavf57.25.100

    Видео
    Идентификатор : 1
    Формат : AVC
    Формат/Информация : Advanced Video Codec
    Профиль формата : High@L3.1
    Параметр CABAC формата : Да
    Параметр ReFrames формата : 4 кадра
    Идентификатор кодека : V_MPEG4/ISO/AVC
    Продолжительность : 11 м. 0 с.
    Битрейт : 1796 Кбит/сек
    Ширина : 1280 пикселей
    Высота : 720 пикселей
    Соотношение сторон : 16:9
    Режим частоты кадров : Постоянный
    Частота кадров : 25,000 кадров/сек
    Цветовое пространство : YUV
    Субдискретизация насыщенности : 4:2:0
    Битовая глубина : 8 бит
    Тип развёртки : Прогрессивная
    Бит/(Пиксели*Кадры) : 0.078
    Размер потока : 141 Мбайт (89%)
    Библиотека кодирования : x264 core 148 r2643 5c65704
    Настройки программы : cabac=1 / ref=3 / deblock=1:0:0 / analyse=0x3:0x133 / me=hex / subme=7 / psy=1 / psy_rd=1.00:0.00 / mixed_ref=1 / me_range=16 / chroma_me=1 / trellis=1 / 8x8dct=1 / cqm=0 / deadzone=21,11 / fast_pskip=1 / chroma_qp_offset=-2 / threads=3 / lookahead_threads=1 / sliced_threads=0 / nr=0 / decimate=1 / interlaced=0 / bluray_compat=0 / constrained_intra=0 / bframes=3 / b_pyramid=2 / b_adapt=1 / b_bias=0 / direct=1 / weightb=1 / open_gop=0 / weightp=2 / keyint=250 / keyint_min=25 / scenecut=40 / intra_refresh=0 / rc_lookahead=40 / rc=crf / mbtree=1 / crf=20.0 / qcomp=0.60 / qpmin=10 / qpmax=51 / qpstep=4 / ip_ratio=1.40 / aq=1:1.00
    Default : Да
    Forced : Нет
    DURATION : 00:11:00.200000000

    Аудио
    Идентификатор : 2
    Формат : AC-3
    Формат/Информация : Audio Coding 3
    Расширение режима : CM (complete main)
    Параметр Endianness формата : Big
    Идентификатор кодека : A_AC3
    Продолжительность : 11 м. 0 с.
    Вид битрейта : Постоянный
    Битрейт : 192 Кбит/сек
    Каналы : 2 канала
    Расположение каналов : Front: L R
    Частота : 44,1 КГц
    Частота кадров : 28,711 кадров/сек (1536 spf)
    Битовая глубина : 16 бит
    Метод сжатия : С потерями
    Задержка видео : -40 мс.
    Размер потока : 15,1 Мбайт (9%)
    Default : Да
    Forced : Нет
    DURATION : 00:11:00.152000000

    Нажмите чтобы закрыть спойлер: MediaInfo


    01. Новая игра
    02. Бойлерная

    Нажмите чтобы закрыть спойлер: Список серий:


    Арт (Артем Мещеряков):
    Лидер команды. Храбрый, решительный и ответственный. Но в то же время — слишком требовательный к остальным и к себе. Победа для Арта — это его личное дело. В любых ошибках Арт так же склонен искать свою вину.
    Девиз — «Ребят, давайте соберемся».
    В виртуальном мире игровой персонаж Арта — рыцарь с мечом-пулеметом и силовым щитом. Арт всегда смело бросается в ближний бой, а в случае опасности готов укрыть своих товарищей за силовым щитом.
    В реальной жизни Арт учится выше среднего. Пятерка для него — «Ну, ничего удивительного, я же заслужил» (хотя внутри Арт волнуется: ого! Пятерка! Ничего себе!).
    Манера речи — Арт соображает и говорит быстро, часто использует восклицания или короткие команды.

    Вик (Виктор Сменкин):
    Отличник-зануда. Начитанный, осторожный, паникер. Но кроме того Вик очень труслив. Его мозг постоянно просчитывает все плохие исходы любой ситуации. Поэтому Вик — главный пессимист в команде. Но в душе романтичный мечтатель. Строгое воспитание и буйное воображение заставляют его бояться всего, а особенно — контактов с посторонними.
    Девиз — «Ну вот, это все-таки произошло. Я же говорил!»
    В игре персонаж Вика — это строитель. Он умеет возводить стены, ловушки и катапульты-пулеметы — да, даже в игре Вик предпочитает отсиживаться в тылу.
    В реальной жизни Вик любит спокойные игры вроде «Фермы». Живет с мамой и бабушкой, обе очень строги с Виком. Вик должен учиться, учиться и еще раз учиться. Уже даже четверка в дневнике воспринимается в семье как повод нанять репетитора.
    Манера речи — Вик запинается, мямлит и не заканчивает большинство начатых сложных предложений. Если только это не крик паники — тут Вику нет равных. Если бы знаки препинания отражались на лице говорящего, Вик был бы весь покрыт многоточиями.

    Фил (Филипп Черных):
    Раздолбай-гедонист. Энергичный, жизнерадостный, самоуверенный. Однако общаться с Филом могут только избранные. Реальный мир, по мнению Фила, создан только для того, чтобы мешать ему играть. Поэтому Фил с пренебрежением относится к отношениям между друзьями, легко может обидеть и даже не догадаться об этом.
    Девиз — «Пацаны, смотрите, как я умею».
    В «Героев Энвелла» Фил играет за волшебника и может использовать огромное количество разных заклинаний.
    В реальной жизни Фил — единственный ребенок в семье, его родители — богатые предприниматели-строители. Конечно, они избаловали своего сына. У Фила нет недостатка ни в чем, поэтому он может целиком сосредоточиться на любимом деле — на видеоиграх. В школе Фил — типичный троечник.
    Манера речи — Фил часто говорит на малопонятном жаргоне, состоящем из терминов компьютерных игр и англицизмов. Фил говорит с пулеметной скоростью и в полной уверенности, что его понимают. В школе на уроках Филу приходится с видимым усилием переключаться на нормальную речь. Но Арт, Вик и Кира привыкли к Филу и даже понимают его. Часто обидные шутки Фила попадают в яблочко.

    Кира (Кира Сменкина):
    Эгоистичная одиночка, двоечница, хулиганка и родная сестра Вика. Кира старается держаться обособленно и независимо, любит показывать свою силу и самоутверждаться за счет других. Но на самом деле очень привязана к своим однокомандникам.
    Девиз — «Так и быть. В последний раз вас спасаю».
    Персонаж Киры — скрытный ловкий вор-арбалетчик — повторяет ее черты в реальном мире. Кира хорошо устраивает диверсии в тылу, но проиграет любую лобовую стычку без поддержки команды.
    В реальной жизни родители Киры и Вика разведены. Вик живет с мамой, а Кира — с отцом. Кира — «свой парень», но очень обижается, когда друзья не видят в ней классную девчонку. Ревнует друзей, а особенно Арта.
    Манера речи — Кира говорит обрывисто и часто грубо, в основном, чтобы сокомандники поняли, как она собирается действовать. Если Фил шутит часто, глупо и не смешно, то Кира говорит редко, едко и метко.

    Нажмите чтобы закрыть спойлер: Основные персонажи:

    Все мультфильмы студии "Паровоз" на NoName Club:


    Аркадий Паровозов
    Бумажки
    Волшебный фонарь
    Герои Энвелла
    Лео и Тиг
    Ми-ми-мишки
    Сказочный патруль

    Нажмите чтобы закрыть спойлер: Все мультфильмы студии "Паровоз" на NoName Club: